Достать ножи: Стеклянная луковица

MVO

Добыча

Дубляж

Уэнсдэй

1 сезон

Тор

Дубляж

13 клиническая

1 сезон

Жестокая ночь

MVO

Одни из нас

1 сезон

Deluxe

pack

Рекомендуем

30

Пиратка

ВАЖНО

ВАЖНО

Ghostwire

Пиратка

jed

RePack

nioh2

RePack

RDR2

RePack

NEED FOR SPEED™ PAYBACK

RePack

скачать торрент

Кинопоиск HD

Острые козырьки 6 сезон

6 сезон

FAR CRY 6

RePack

скачать торрент

Лицензия

скачать торрент

MVO

1

1 сезон

скачать торрент

1 сезон

скачать торрент

Лицензия

  

Книга Илая / The Book of Eli (Альберт Хьюз, Аллен Хьюз) [2010, Боевик, Триллер, Драма, BD Remux] от R.G. PiratFilms

Книга Илая через торрент piratbit.org

Размер: 29.27 GB | Добавлен: 8 лет 10 мес. назад | Торрент скачан:10 раз
Смотреть онлайн | Скачать | Поддержите нас   

11-03-2014 14:57 Книга Илая Скачать торрент  



Книга Илая / The Book of Eli
«Одни готовы убивать, чтобы завладеть ею. Он готов убивать, чтобы защитить её»


Информация Описание

Год выпуска: 2010
Страна: США
Жанр: Боевик, Триллер, Драма, Приключения
Продолжительность: 01:57:36
Перевод: Дублированный|Многоголосый (закадровый)|Одноголосый
Режиссер: Альберт Хьюз, Аллен Хьюз
В ролях: Дензел Вашингтон, Гари Олдман, Мила Кунис, Рэй Стивенсон, Дженнифер Билз, Малкольм МакДауэлл, Фрэнсис де ла Тур, Майкл Гэмбон, Том Уэйтс, Ивэн Джонс, Джо Пинг, Крис Браунинг


Описание фильма:

После мировой катастрофы Америка превратилась в выжженную пустыню. По бескрайним дорогам, кишащим бандами, враждующими между собой за воду и еду, странствует мудрый Илай. Однажды он прибывает в мрачные края, где когда-то была цветущая Калифорния, а теперь это сущий ад, где бесчинствует тиран Карнеги.

Информация о файле:

Качество: BD Remux | Исходник: Blu-ray | Сингронизация звука и видео: XLASER
Формат: MKV
Видео кодек: AVC
Аудио кодек: AC3|DTS-HD
Видео: 1920x1080 (16:9), 27744 Кбит/сек, 23,976 fps
Аудио №1: DTS-HD, 1560 Кбит/сек, 6 каналов, 48 КГц (Английский|Оригинал)
Аудио №2: DTS-HD, 1560 Кбит/сек, 6 каналов, 48 КГц (Русский|Дублированный)
Аудио №3: DTS-HD, 1560 Кбит/сек, 6 каналов, 48 КГц (Русский|Многоголосый (закадровый)
Аудио №4: AC3, 192 Кбит/сек, 2 каналов, 48 КГц (Русский|Одноголосый - Гаврилов)
Аудио №5: DTS-HD, 2304 Кбит/сек, 6 каналов, 48 КГц (Украинский|Многоголосый (закадровый)
Субтитры: S_HDMV|PGS, Русские, Английские




Код:

Формат                                   : Matroska
Версия формата                           : Version 4 / Version 2
Размер файла                             : 29,3 Гбайт
Продолжительность                        : 1 ч. 57 м.
Режим общего битрейта                    : Переменный
Общий поток                              : 35,6 Мбит/сек
Название фильма                          : Сингронизация звука и видео: XLASER
Дата кодирования                         : UTC 2014-03-11 13:47:25
Программа кодирования                    : mkvmerge v6.8.0 ('Theme for Great Cities') 32bit built on Mar  2 2014 21:27:07
Библиотека кодирования                   : libebml v1.3.0 + libmatroska v1.4.1

Видео
Идентификатор                            : 1
Формат                                   : AVC
Формат/Информация                        : Advanced Video Codec
Профиль формата                          : High@L4.1
Параметр CABAC формата                   : Да
Параметр ReFrames формата                : 2 кадра
Идентификатор кодека                     : V_MPEG4/ISO/AVC
Продолжительность                        : 1 ч. 57 м.
Вид битрейта                             : Переменный
Битрейт                                  : 27,7 Мбит/сек
Ширина                                   : 1920 пикселей
Высота                                   : 1080 пикселей
Соотношение сторон                       : 16:9
Режим частоты кадров                     : Постоянный
Частота кадров                           : 23,976 кадра/сек
Цветовое пространство                    : YUV
Субдискретизация насыщенности            : 4:2:0
Битовая глубина                          : 8 бит
Тип развёртки                            : Прогрессивная
Бит/(Пиксели*Кадры)                      : 0.558
Размер потока                            : 22,8 Гбайт (78%)
Default                                  : Да
Forced                                   : Нет

Аудио #1
Идентификатор                            : 2
Формат                                   : DTS
Формат/Информация                        : Digital Theater Systems
Профиль формата                          : MA / Core
Идентификатор кодека                     : A_DTS
Продолжительность                        : 1 ч. 57 м.
Вид битрейта                             : Переменный
Битрейт                                  : 1561 Кбит/сек / 1510 Кбит/сек
Каналы                                   : 6 каналов
Расположение каналов                     : Front: L C R, Side: L R, LFE
Частота                                  : 48,0 КГц
Битовая глубина                          : 24 бит
Метод сжатия                             : Без потерь / Lossy
Язык                                     : English
Default                                  : Да
Forced                                   : Нет

Аудио #2
Идентификатор                            : 3
Формат                                   : DTS
Формат/Информация                        : Digital Theater Systems
Профиль формата                          : MA / Core
Идентификатор кодека                     : A_DTS
Продолжительность                        : 1 ч. 57 м.
Вид битрейта                             : Переменный
Битрейт                                  : 1561 Кбит/сек / 1510 Кбит/сек
Каналы                                   : 6 каналов
Расположение каналов                     : Front: L C R, Side: L R, LFE
Частота                                  : 48,0 КГц
Битовая глубина                          : 16 бит
Метод сжатия                             : Без потерь / Lossy
Язык                                     : Russian
Default                                  : Нет
Forced                                   : Нет

Аудио #3
Идентификатор                            : 4
Формат                                   : DTS
Формат/Информация                        : Digital Theater Systems
Профиль формата                          : MA / Core
Идентификатор кодека                     : A_DTS
Продолжительность                        : 1 ч. 57 м.
Вид битрейта                             : Переменный
Битрейт                                  : 1561 Кбит/сек / 1510 Кбит/сек
Каналы                                   : 6 каналов
Расположение каналов                     : Front: L C R, Side: L R, LFE
Частота                                  : 48,0 КГц
Битовая глубина                          : 24 бит
Метод сжатия                             : Без потерь / Lossy
Язык                                     : Russian
Default                                  : Нет
Forced                                   : Нет

Аудио #4
Идентификатор                            : 5
Формат                                   : AC-3
Формат/Информация                        : Audio Coding 3
Профиль формата                          : Dolby Digital
Расширение режима                        : CM (complete main)
Параметр Endianness формата              : Big
Идентификатор кодека                     : A_AC3
Продолжительность                        : 1 ч. 57 м.
Вид битрейта                             : Постоянный
Битрейт                                  : 192 Кбит/сек
Каналы                                   : 2 канала
Расположение каналов                     : Front: L R
Частота                                  : 48,0 КГц
Битовая глубина                          : 16 бит
Метод сжатия                             : С потерями
Размер потока                            : 162 Мбайт (1%)
Язык                                     : Ukrainian
Default                                  : Нет
Forced                                   : Нет

Аудио #5
Идентификатор                            : 6
Формат                                   : DTS
Формат/Информация                        : Digital Theater Systems
Профиль формата                          : HRA / Core
Идентификатор кодека                     : A_DTS
Продолжительность                        : 1 ч. 57 м.
Вид битрейта                             : Постоянный
Битрейт                                  : 2305 Кбит/сек / 1510 Кбит/сек
Каналы                                   : 6 каналов
Расположение каналов                     : Front: L C R, Side: L R, LFE
Частота                                  : 48,0 КГц
Битовая глубина                          : 24 бит
Метод сжатия                             : С потерями
Размер потока                            : 1,89 Гбайт (6%)
Язык                                     : Russian
Default                                  : Нет
Forced                                   : Нет

Текст #1
Идентификатор                            : 7
Формат                                   : PGS
Режим смешивания                         : zlib
Идентификатор кодека                     : S_HDMV/PGS
Идентификатор кодека/Информация          : The same subtitle format used on BDs/HD-DVDs
Язык                                     : English
Default                                  : Да
Forced                                   : Нет

Текст #2
Идентификатор                            : 8
Формат                                   : PGS
Режим смешивания                         : zlib
Идентификатор кодека                     : S_HDMV/PGS
Идентификатор кодека/Информация          : The same subtitle format used on BDs/HD-DVDs
Язык                                     : Russian
Default                                  : Нет
Forced                                   : Нет



скриншот   скриншот   скриншот   скриншот   скриншот   скриншот  





Скачать Книга Илая через торрент https://pic1.kartinco.top/images/61/9hgr7.jpg Скачать, смотреть онлайн Книга Илая бесплантно в хорошем качестве ОписаниеГод выпуска: 2010Страна: СШАЖанр: Боевик, Триллер, Драма, ПриключенияПродолжительность: 01:57:36Перевод: Дублированный|Многоголосый ... 9.1 10 9
Info! Золотая раздача, скачанное не засчитывается.
Торрент: Зарегистрирован [2014-03-11 14:56] · скачан: 10 раз
Статус: √ проверено
Размер: 29.27 GB
Как cкачать? Как скачать Книга Илая через торрент | UTorrent

% Раздел Тема Автор DL S | L
Фильмы 2010 [ 1.46 GB ] Книга Илая / The Book of Eli | Лицензия От R.G. PiratFilms | HDRip-AVC White Smoke Скачать
1 | 0

28-11-2019 20:33  


Отключить вcю реклaмy на сайте, в т.ч. и в плеере онлайн просмотра!

    Дорогой пользователь! Огромная просьба, поблагодарите релизера, оцените раздачу и оставьте свои комментарий, если Вы скачали Книга Илая через торрент бесплатно!!
    Комментировать посты могут только пользователи прошедшие не сложную регистрацию
    Показать сообщения:    


    Книга Илая через торрент
    Скачать бесплатно Книга Илая
    Книга Илая скачать торрент
    Книга Илая смотреть онлайн
    Cкачать фильм Книга Илая бесплатно
    Книга Илая скачать торрент в хорошем качестве
    Книга Илая смотреть онлайн бесплатно в хорошем качестве
    Вы не можете начинать темы
    Вы не можете отвечать на сообщения
    Вы не можете редактировать свои сообщения
    Вы не можете удалять свои сообщения
    Вы не можете голосовать в опросах
    Вы не можете прикреплять файлы к сообщениям
    Вы можете скачивать файлы
    Книга Илая / The Book of Eli [2010, Боевик, Триллер, Драма, BD Remux] от R.G. PiratFilms смотреть онлайн, скачать торрент picoco.icu