1 сезон

iTunes

iTunes

1

Line

MVO

iTunes

13

1 сезон

RePack

30

Deluxe

pack

Лицензия

ВАЖНО

ИГРА 18+

pack

RePack

MK11

RePack

jed

RePack

fifa19

RePack

RDR2

RePack

NEED FOR SPEED™ PAYBACK

4 сезон

9 сезон

Бесстыжие 9 сезон

Все сериалы

все сериалы на PB.wtf

RePack

FAR CRY 5

Anonymous, добрый день, мы катастрофически не успеваем собрать деньги на оплату серверов, помогите нам пожалуйста 5,10,15р., для нас важна любая помощь . В качестве благодарности мы отключим Вам всю рекламу на сайте (укажите свой ник в строку Ваше имя)!

×
  
Magnet ссылка

Тропа / Dong phayaa fai ( The Trek) (Чанчай Пантази / Chanchai Pantasi) [ 2002 , Таиланд , приключения , DVDRip, MVO ] piratbit.org

Тропа через торрент piratbit.org

Размер: 1.37 GB | Добавлен: 7 лет 4 мес. назад | Торрент скачан:67 раз
Скачать  

16-03-2014 03:56 Тропа Скачать торрент  

Тропа / Dong phayaa fai ( The Trek)Год выпуска:2002
Страна: Таиланд
Жанр: приключения

Продолжительность: 01:42:38
Перевод: Профессиональный (многоголосый, закадровый)

Субтитры: Нет
Режиссер: Чанчай Пантази / Chanchai Pantasi

В ролях: Tawatchai Austinont, Пол Кэри (Chote), Супаксон Чаймонгкол (Air), Грегори Т. Эисмин (Sam), Manaswee Krittanookul (Tong), Эйлид МакКуин, Данай Смуткочерн (Kong)
Описание:
Узнав о найденном в джунглях уникальном животном - азиатском слоне - ученые из ассоциации по защите животных и группа западных исследователей отправляются на поиски. Но в джунглях их ждут самые разные опасности: от контрабандистов с грузом наркотиков до целой армии смертельно ядовитых насекомых. Никто еще не возвращался живым из этого места, и ни один местный житель не соглашается стать их проводником. Они отправляются туда одни и вскоре понимают, почему даже местные так боятся заходить вглубь этого леса.
Рейтинг
kinopoisk.ru: 4.429 (27)
imdb.com: 3.90 (31)
Качество: DVDRip
Формат: AVI
Видео кодек: XviD
Аудио кодек: AC3
Видео: XviD, 640x480 (4:3), 1446 kbps, 25 fps, 0,188 bpp
Аудио: AC3 / 5.1 / 48 kHz / 448 kbps / 16 bit© Оформление by ФёдорOFF
General
Complete name : D:раздачиTropa.2002.XviD.DVDRip.avi
Format : AVI
Format/Info : Audio Video Interleave
File size : 1.37 GiB
Duration : 1h 42mn
Overall bit rate : 1 904 Kbps
Writing application : VirtualDubMod 1.5.10.2 (build 2540/release)
Writing library : VirtualDubMod build 2540/release

Video
ID : 0
Format : MPEG-4 Visual
Format profile : Advanced Simple@L5
Format settings, BVOP : 1
Format settings, QPel : No
Format settings, GMC : No warppoints
Format settings, Matrix : Default (H.263)
Codec ID : XVID
Codec ID/Hint : XviD
Duration : 1h 42mn
Bit rate : 1 447 Kbps
Width : 640 pixels
Height : 480 pixels
Display aspect ratio : 4:3
Frame rate : 25.000 fps
Color space : YUV
Chroma subsampling : 4:2:0
Bit depth : 8 bits
Scan type : Progressive
Compression mode : Lossy
Bits/(Pixel*Frame) : 0.188
Stream size : 1.04 GiB (76%)
Writing library : XviD 1.2.0.dev47 (UTC 2006-11-01)

Audio
ID : 1
Format : AC-3
Format/Info : Audio Coding 3
Mode extension : CM (complete main)
Codec ID : 2000
Duration : 1h 42mn
Bit rate mode : Constant
Bit rate : 448 Kbps
Channel(s) : 6 channels
Channel positions : Front: L C R, Side: L R, LFE
Sampling rate : 48.0 KHz
Bit depth : 16 bits
Compression mode : Lossy
Stream size : 329 MiB (24%)
Alignment : Split accross interleaves
Interleave, duration : 40 ms (1.00 video frame)
Interleave, preload duration : 500 ms
piratbit.org



Скачать Тропа через торрент http://i4.imageban.ru/out/2014/03/16/0fbf6fb6f938e83abb7e70b6adb0d2dd.jpg Скачать фильм Тропа через торрент бесплантно в хорошем качестве Описание: Узнав о найденном в джунглях уникальном животном - азиатском слоне - ученые из ассоциации по защите животных и группа западных ... 10 10 9
Торрент: Зарегистрирован [2014-03-16 03:56] · скачан: 67 раз
Статус: √ проверено
Размер: 1.37 GB
Как cкачать? Как скачать Тропа через торрент | UTorrent

28-11-2019 20:33  

Отключить всю рекламу на сайте

    Дорогой пользователь! Огромная просьба, поблагодарите релизера, оцените раздачу и оставьте свои комментарий, если Вы скачали Тропа через торрент бесплатно! Внесите свою лепту в развитие PiratBit!
    Комментировать посты могут только пользователи прошедшие не сложную регистрацию
    Показать сообщения:    

    Тропа через торрент
    Скачать бесплатно Тропа
    Тропа скачать торрент
    Тропа смотреть онлайн
    Cкачать фильм Тропа бесплатно
    Тропа скачать торрент в хорошем качестве
    Тропа смотреть онлайн бесплатно в хорошем качестве


    Вы не можете начинать темы
    Вы не можете отвечать на сообщения
    Вы не можете редактировать свои сообщения
    Вы не можете удалять свои сообщения
    Вы не можете голосовать в опросах
    Вы не можете прикреплять файлы к сообщениям
    Вы можете скачивать файлы