Достать ножи: Стеклянная луковица

MVO

Добыча

Дубляж

Уэнсдэй

1 сезон

Тор

Дубляж

13 клиническая

1 сезон

Жестокая ночь

MVO

Одни из нас

1 сезон

Deluxe

pack

Рекомендуем

30

Пиратка

ВАЖНО

ВАЖНО

Ghostwire

Пиратка

jed

RePack

nioh2

RePack

RDR2

RePack

NEED FOR SPEED™ PAYBACK

RePack

скачать торрент

Кинопоиск HD

Острые козырьки 6 сезон

6 сезон

FAR CRY 6

RePack

скачать торрент

Лицензия

скачать торрент

MVO

1

1 сезон

скачать торрент

1 сезон

скачать торрент

Лицензия

  

Европа / Europa Report (Себастьян Кордеро) [2013 г., фантастика, триллер, BD-Remux, Дубляж + Оригинал]

Европа через торрент piratbit.org

Размер: 15.71 GB | Добавлен: 8 лет 10 мес. назад | Торрент скачан:112 раз
Смотреть онлайн | Скачать | Поддержите нас   

18-03-2014 20:35 Европа Скачать торрент  

Европа / Europa Report
Год выпуска: 2013
Страна: США
Жанр: фантастика, триллер,
Продолжительность: 01:30:25
Перевод: Дубляж (iTunes) + Оригинал
Субтитры: русские, английские

Режиссер: Себастьян Кордеро

В ролях: Кристиан Камарго, Анамария Маринка, Микаэл Нюквист, Дэниэл Ву, Каролина Выдра, Шарлто Копли, Эмбет Дэвидц, Дэн Фоглер, Исайя Уитлок мл., Нил Тайсон,

Описание: Фильм повествует о международной космической экспедиции к шестому спутнику Юпитера, которую снаряжает некая частная корпорация. Цель полёта — высадиться на поверхность Европы, в подлёдном океане которой учёные теоретически предполагают наличие жизни.

Качество: BD-Remux
Формат: MKV
Видео кодек: H.264
Аудио кодек: AC3-DTS
Видео: MPEG-4 AVC, (1920x1080),22 500 Кбит/с, 23976 кадра/сек
Аудио#1: AC-3, 6 ch, 384 kbps (Rus) 48.0 KHz Дубляж (iTunes)
Аудио#2: DTS, 6 ch, 1509 Кбит/с (Eng) 48.0 KHz Оригинал
скриншот   скриншот   скриншот  

Формат : Matroska
Версия формата : Version 2
Размер файла : 15,7 Гбайт
Продолжительность : 1 ч. 30 м.
Режим общего битрейта : Переменный
Общий поток : 24,9 Мбит/сек
Название фильма : Europa Report (2013) - Release for HDCLUB
Дата кодирования : UTC 2014-03-18 15:14:45
Программа кодирования : mkvmerge v6.7.0 ('Back to the Ground') 32bit built on Jan 8 2014 15:03:17
Библиотека кодирования : libebml v1.3.0 + libmatroska v1.4.1

Видео
Идентификатор : 1
Формат : AVC
Формат/Информация : Advanced Video Codec
Профиль формата : High@L4.1
Параметр CABAC формата : Да
Параметр ReFrames формата : 4 кадра
Идентификатор кодека : V_MPEG4/ISO/AVC
Продолжительность : 1 ч. 30 м.
Вид битрейта : Переменный
Битрейт : 22,5 Мбит/сек
Максимальный битрейт : 35,0 Мбит/сек
Ширина : 1920 пикселей
Высота : 1080 пикселей
Соотношение сторон : 16:9
Режим частоты кадров : Постоянный
Частота кадров : 23,976 кадра/сек
Стандарт вещания : NTSC
Цветовое пространство : YUV
Субдискретизация насыщенности : 4:2:0
Битовая глубина : 8 бит
Тип развёртки : Прогрессивная
Бит/(Пиксели*Кадры) : 0.452
Размер потока : 14,2 Гбайт (90%)
Язык : English
Default : Да
Forced : Да
Основные цвета : BT.709
Характеристики трансфера : BT.709
Коэффициенты матрицы : BT.709

Аудио #1
Идентификатор : 2
Формат : AC-3
Формат/Информация : Audio Coding 3
Расширение режима : CM (complete main)
Параметр Endianness формата : Big
Идентификатор кодека : A_AC3
Продолжительность : 1 ч. 30 м.
Вид битрейта : Постоянный
Битрейт : 384 Кбит/сек
Каналы : 6 каналов
Расположение каналов : Front: L C R, Side: L R, LFE
Частота : 48,0 КГц
Битовая глубина : 16 бит
Метод сжатия : С потерями
Размер потока : 248 Мбайт (2%)
Заголовок : AC3 5.1 @ 384 kbps - Дубляж, iTunes
Язык : Russian
Default : Да
Forced : Нет

Аудио #2
Идентификатор : 3
Формат : DTS
Формат/Информация : Digital Theater Systems
Режим : 16
Параметр Endianness формата : Big
Идентификатор кодека : A_DTS
Продолжительность : 1 ч. 30 м.
Вид битрейта : Постоянный
Битрейт : 1509 Кбит/сек
Каналы : 6 каналов
Расположение каналов : Front: L C R, Side: L R, LFE
Частота : 48,0 КГц
Битовая глубина : 24 бит
Метод сжатия : С потерями
Задержка видео : 11 мс.
Размер потока : 976 Мбайт (6%)
Заголовок : DTS 5.1 @ 1536 kbps
Язык : English
Default : Нет
Forced : Нет

Текст #1
Идентификатор : 4
Формат : UTF-8
Идентификатор кодека : S_TEXT/UTF8
Идентификатор кодека/Информация : UTF-8 Plain Text
Заголовок : Forced
Язык : Russian
Default : Да
Forced : Нет

Текст #2
Идентификатор : 5
Формат : UTF-8
Идентификатор кодека : S_TEXT/UTF8
Идентификатор кодека/Информация : UTF-8 Plain Text
Язык : Russian
Default : Нет
Forced : Нет

Текст #3
Идентификатор : 6
Формат : UTF-8
Идентификатор кодека : S_TEXT/UTF8
Идентификатор кодека/Информация : UTF-8 Plain Text
Заголовок : Forced
Язык : English
Default : Нет
Forced : Нет

Текст #4
Идентификатор : 7
Формат : UTF-8
Идентификатор кодека : S_TEXT/UTF8
Идентификатор кодека/Информация : UTF-8 Plain Text
Язык : English
Default : Нет
Forced : Нет




Скачать Европа через торрент https://pic1.kartinco.top/images/61/zls5s.jpg Скачать, смотреть онлайн Европа бесплантно в хорошем качестве Описание: Фильм повествует о международной космической экспедиции к шестому спутнику Юпитера, которую снаряжает некая частная корпорация. ... 9.2 10 6
Info! Золотая раздача, скачанное не засчитывается.
Торрент: Зарегистрирован [2014-03-18 20:35] · скачан: 112 раз
Статус: √ проверено
Размер: 15.71 GB
Как cкачать? Как скачать Европа через торрент | UTorrent

% Раздел Тема Автор DL S | L
Фильмы 2013 [DVDrip, WEB-DLRip, HDrip] [ 1.37 GB ] Европа / Europa Report | Лицензия | HDRip,Профессиональный [Дубляж - Лицензия/ iTunes Ворон Скачать
1 | 0
Фильмы 2012 [ 2.15 GB ] Европа / Europa Report | iTunes | BDRip-AVC potroks Скачать
1 | 0
Фильмы [HD 720p, 1080p] (Хороший звук DUB, MVO) [ 9.24 GB ] Европа / Europa Report | | 1080p diletant Скачать
1 | 0
Фильмы [HD 720p, 1080p] (Хороший звук DUB, MVO) [ 5.46 GB ] Европа / Europa Report | | 720p diletant Скачать
1 | 0

28-11-2019 20:33  


Отключить вcю реклaмy на сайте, в т.ч. и в плеере онлайн просмотра!

    Дорогой пользователь! Огромная просьба, поблагодарите релизера, оцените раздачу и оставьте свои комментарий, если Вы скачали Европа через торрент бесплатно!!
    Комментировать посты могут только пользователи прошедшие не сложную регистрацию
    Показать сообщения:    


    Европа через торрент
    Скачать бесплатно Европа
    Европа скачать торрент
    Европа смотреть онлайн
    Cкачать фильм Европа бесплатно
    Европа скачать торрент в хорошем качестве
    Европа смотреть онлайн бесплатно в хорошем качестве
    Вы не можете начинать темы
    Вы не можете отвечать на сообщения
    Вы не можете редактировать свои сообщения
    Вы не можете удалять свои сообщения
    Вы не можете голосовать в опросах
    Вы не можете прикреплять файлы к сообщениям
    Вы можете скачивать файлы
    Европа / Europa Report [2013 г., фантастика, триллер, BD-Remux, Дубляж + Оригинал] смотреть онлайн, скачать торрент picoco.icu