Достать ножи: Стеклянная луковица

MVO

Добыча

Дубляж

Уэнсдэй

1 сезон

Тор

Дубляж

13 клиническая

1 сезон

Жестокая ночь

MVO

Одни из нас

1 сезон

Deluxe

pack

Рекомендуем

30

Пиратка

ВАЖНО

ВАЖНО

Ghostwire

Пиратка

jed

RePack

nioh2

RePack

RDR2

RePack

NEED FOR SPEED™ PAYBACK

RePack

скачать торрент

Кинопоиск HD

Острые козырьки 6 сезон

6 сезон

FAR CRY 6

RePack

скачать торрент

Лицензия

скачать торрент

MVO

1

1 сезон

скачать торрент

1 сезон

скачать торрент

Лицензия

  

Холодная гора / Cold Mountain (Энтони Мингелла) [2003 г., драма, мелодрама, военный, BDRemux 1080p, Дубляж + MVO + Original Eng]

Холодная гора через торрент piratbit.org

Размер: 30.56 GB | Добавлен: 8 лет 10 мес. назад | Торрент скачан:25 раз
Смотреть онлайн | Скачать | Поддержите нас   

19-03-2014 11:53 Холодная гора Скачать торрент  

Холодная гора / Cold MountainГод выпуска: 2003
Страна: США, Великобритания, Румыния, Италия
Жанр: драма, мелодрама, военный
Продолжительность: 02:34:25
Перевод: Дубляж (R5) Профессиональный многоголосый, закадровый (С.Р.И)
Субтитры: Русские, английские

Режиссер: Энтони Мингелла
Продюссер: Альберт Бергер, Уильям Хорберг, Сидни Поллак
Сценарий: Энтони Мингелла, Чарльз Фрейзер

Бюджет: $79 000 000
Премьера в мире: 25 декабря 2003







В ролях: Джуд Лоу (Inman), Николь Кидман (Ada Monroe), Рене Зеллвегер (Ruby Thewes), Айлин Эткинс (Maddy), Брендан Глисон (Stobrod Thewes), Филип Сеймур Хоффман (Reverend Veasey), Натали Портман (Sara), Джованни Рибизи (Junior), Дональд Сазерленд (Reverend Monroe), Рэй Уинстон (Teague), Кэти Бейкер (Sally Swanger), Джеймс Гэммон (Esco Swanger)




Описание: Кровавый период Гражданской войны в США: американский конфедерат Инман пытается добраться с линии фронта домой, в Холодную Гору (штат Северная Каролина), где оставил свою возлюбленную Аду.
Ада пытается выжить одна в разоренном тылу. На помощь ей приходит бродяжка Руби, которая учит светскую барышню азам ведения хозяйства...





Качество: BDRemux 1080p
Формат: MKV
Видео кодек: MPEG-4 AVC
Аудио кодек: AC3 DTS
Видео: MPEG-4 AVC Video / 24996 kbps / 1080p / 23,976 fps / 16:9 / High Profile 4.1
Аудио#1: Russian / Dolby Digital Audio / 5.1 / 48 kHz / 384 kbps ( Дубляж, R5)
Аудио#2: Russian / DTS Audio / 5.1 / 48 kHz / 768 kbps / 24-bit (Многоголосый закадровый, С.Р.И)
Аудио#3: English / DTS-HD Master Audio / 5.1 / 48 kHz / 2292 kbps / 16-bit (DTS Core: 5.1 / 48 kHz / 1509 kbps / 16-bit)
Релиз от:

General
Unique ID : 226146893684457370144701505342140279020 (0xAA224EB43CC9DF84A7CCE553CACF68EC)
Complete name : D:Holodnaja.gora.2003.BDRemux 1080p.mkv
Format : Matroska
Format version : Version 2
File size : 30.6 GiB
Duration : 2h 34mn
Overall bit rate mode : Variable
Overall bit rate : 28.3 Mbps
Encoded date : UTC 2012-05-04 13:39:59
Writing application : mkvmerge v5.4.0 ('Piper') built on Mar 10 2012 13:34:39
Writing library : libebml v1.2.3 libmatroska v1.3.0
Video
ID : 1
Format : AVC
Format/Info : Advanced Video Codec
Format profile : High@L4.1
Format settings, CABAC : Yes
Format settings, ReFrames : 4 frames
Format settings, GOP : M=1, N=12
Codec ID : V_MPEG4/ISO/AVC
Duration : 2h 34mn
Bit rate mode : Variable
Bit rate : 25.1 Mbps
Maximum bit rate : 36.0 Mbps
Width : 1 920 pixels
Height : 1 080 pixels
Display aspect ratio : 16:9
Frame rate : 23.976 fps
Color space : YUV
Chroma subsampling : 4:2:0
Bit depth : 8 bits
Scan type : Progressive
Bits/(Pixel*Frame) : 0.504
Stream size : 27.0 GiB (88%)
Default : Yes
Forced : No
Audio #1
ID : 2
Format : AC-3
Format/Info : Audio Coding 3
Mode extension : CM (complete main)
Codec ID : A_AC3
Duration : 2h 34mn
Bit rate mode : Constant
Bit rate : 384 Kbps
Channel(s) : 6 channels
Channel positions : Front: L C R, Side: L R, LFE
Sampling rate : 48.0 KHz
Bit depth : 16 bits
Compression mode : Lossy
Stream size : 424 MiB (1%)
Language : Russian
Default : Yes
Forced : No
Audio #2
ID : 3
Format : DTS
Format/Info : Digital Theater Systems
Codec ID : A_DTS
Duration : 2h 34mn
Bit rate mode : Constant
Bit rate : 755 Kbps
Channel(s) : 6 channels
Channel positions : Front: L C R, Side: L R, LFE
Sampling rate : 48.0 KHz
Bit depth : 24 bits
Compression mode : Lossy
Stream size : 833 MiB (3%)
Language : Russian
Default : No
Forced : No
Audio #3
ID : 4
Format : DTS
Format/Info : Digital Theater Systems
Format profile : MA / Core
Codec ID : A_DTS
Duration : 2h 34mn
Bit rate mode : Variable
Bit rate : 1 561 Kbps / 1 510 Kbps
Channel(s) : 6 channels
Channel positions : Front: L C R, Side: L R, LFE
Sampling rate : 48.0 KHz
Bit depth : 16 bits
Compression mode : Lossless / Lossy
Language : English
Default : No
Forced : No
Text #1
ID : 5
Format : UTF-8
Codec ID : S_TEXT/UTF8
Codec ID/Info : UTF-8 Plain Text
Language : Russian
Default : Yes
Forced : No
Text #2
ID : 6
Format : UTF-8
Codec ID : S_TEXT/UTF8
Codec ID/Info : UTF-8 Plain Text
Language : English
Default : No
Forced : No
Menu
00:00:00.000 : en:"A Design for Each and Every One of Us"
00:05:21.529 : en:"This World Won't Stand Long"
00:09:12.718 : en:Chain Gang
00:14:39.670 : en:"The Tribes of Israel are About to Flee"
00:16:56.223 : en:"You Never Wrapped Your Legs Around This Inman"
00:22:45.781 : en:Ferry Crossing
00:27:43.703 : en:Black Cove Catastrophe
00:34:15.844 : en:"I'm a Man of God"
00:41:54.929 : en:"My Name Is Ruby Thewes"
00:46:21.612 : en:Ada at the Well
00:49:44.314 : en:Back to Cold Mountain
00:52:21.888 : en:Bitter Chapters of Time
00:54:48.284 : en:"We Got Our War!"
00:56:59.498 : en:Heroes for the Cause
01:01:04.535 : en:"If it Were Enough Just to Stand"
01:05:10.113 : en:Play Something Sweet
01:13:08.634 : en:"It's a Turkey Shoot!"
01:19:25.761 : en:"Inman Speaks"
01:23:37.429 : en:The Siege of Petersburg
01:28:59.000 : en:"Ruby with the Eyes That СПАМ
01:35:46.448 : en:"Lie Here Next to Me"
01:46:48.402 : en:"Yankees are Coming"
01:52:12.559 : en:"A Cloud Over the Land"
02:00:43.611 : en:Lost and Found
02:08:43.507 : en:"I Marry You, I Marry You, I Marry You"
02:16:18.170 : en:"There Will Be a Reckoning"
02:24:21.235 : en:Making Peace with the Past
02:27:31.174 : en:End Credits

Холодная гора скачать торрент





Скачать Холодная гора через торрент https://pic1.kartinco.top/images/61/dec4f.jpg Скачать, смотреть онлайн Холодная гора бесплантно в хорошем качестве Описание: Кровавый период Гражданской войны в США: американский конфедерат Инман пытается добраться с линии фронта домой, в Холодную Гору ... 10 10 4
Info! Золотая раздача, скачанное не засчитывается.
Торрент: Зарегистрирован [2014-03-19 11:53] · скачан: 25 раз
Статус: √ проверено
Размер: 30.56 GB
Как cкачать? Как скачать Холодная гора через торрент | UTorrent

% Раздел Тема Автор DL S | L
Фильмы [HD 720p, 1080p] (Хороший звук DUB, MVO) [ 21.24 GB ] Холодная гора / Cold Mountain | DUB | 1080p msltel Скачать
1 | 0
Фильмы [HD 720p, 1080p] (Хороший звук DUB, MVO) [ 6.8 GB ] Холодная гора / Cold Mountain | DUB | 720p msltel Скачать
1 | 0
Фильмы 2001-2005 [ 2.6 GB ] Холодная гора / Cold Mountain | | BDRip Sудья Скачать
1 | 0
Фильмы [HD 720p, 1080p] (Хороший звук DUB, MVO) [ 7.86 GB ] Холодная гора / Cold Mountain | | 720p diletant Скачать
1 | 1

28-11-2019 20:33  


Отключить вcю реклaмy на сайте, в т.ч. и в плеере онлайн просмотра!

    Дорогой пользователь! Огромная просьба, поблагодарите релизера, оцените раздачу и оставьте свои комментарий, если Вы скачали Холодная гора через торрент бесплатно!!
    Комментировать посты могут только пользователи прошедшие не сложную регистрацию
    Показать сообщения:    


    Холодная гора через торрент
    Скачать бесплатно Холодная гора
    Холодная гора скачать торрент
    Холодная гора смотреть онлайн
    Cкачать фильм Холодная гора бесплатно
    Холодная гора скачать торрент в хорошем качестве
    Холодная гора смотреть онлайн бесплатно в хорошем качестве
    Вы не можете начинать темы
    Вы не можете отвечать на сообщения
    Вы не можете редактировать свои сообщения
    Вы не можете удалять свои сообщения
    Вы не можете голосовать в опросах
    Вы не можете прикреплять файлы к сообщениям
    Вы можете скачивать файлы
    Холодная гора / Cold Mountain [2003 г., драма, мелодрама, военный, BDRemux 1080p, Дубляж + MVO + Original Eng] смотреть онлайн, скачать торрент picoco.icu