Ссылка на приватное зеркало нашего сайта всего за 1$. Внимание количество ограничено!!!

2 сезон

iTunes

iTunes

1

iTunes

iTunes

iTunes

WEBRip

iTunes

30
pack

Забери бонус

ВАЖНО

!!Акция!!

Alien_RageХит недели

RePack

RESIDENT EVIL 3: NEMESIS REMAKE

ИГРА 18+

pack

RePack

jed

!!Акция!!

Alien_Rage

RePack

fifa19

RePack

Assassins Creed: Odyssey

RePack

NEED FOR SPEED™ PAYBACK

4 сезон

9 сезон

Бесстыжие 9 сезон

Все сериалы

все сериалы на PB.wtf

RePack

FAR CRY 5
  

Трансформеры / Transformers (Майкл Бэй / Michael Bay) [2007 г., Боевик, Приключения, Фантастика, Триллер, BDRip-AVC, Дубляж + Оригинал] от R.G. PiratFilms piratbit.org

Трансформеры через торрент piratbit.org

Размер: 4.36 GB | Добавлен: 6 лет 6 мес. назад | Торрент скачан:268 раз
Скачать  

19-03-2014 19:50 Трансформеры Скачать торрент  

Год выпуска: 2007
Страна: США
Жанр: Боевик, Приключения, Фантастика, Триллер,
Перевод: Дубляж + Оригинал
Длительность: 02:23:27

Режиссер: Майкл Бэй / Michael Bay

В ролях: Шайа ЛаБаф /Shia LaBeouf/, Меган Фокс /Megan Fox/, Джош Дюамель /Josh Duhamel/, Рэйчел Тейлор /Rachael Taylor/, Тайрез Гибсон /Tyrese Gibson/, Джон Войт /Jon Voight,

Описание: В течение многих столетий две расы роботов-инопланетян — Автоботы и Десептиконы — вели войну, ставкой в которой была судьба Bселенной. И вот война докатилась до Земли. В то время, когда силы зла ищут ключ к верховной власти, наш последний шанс на спасение находится в руках юного землянина. Единственное, что стоит между несущими зло Десептиконами и высшей властью — это ключ, находящийся в руках простого парнишки.
Обычный подросток, Сэм Уитвикки озабочен повседневными хлопотами — школа, друзья, машины, девочки. Не ведая о том, что он является последним шансом человечества на спасение, Сэм вместе со своей подругой Микаэлой оказываются вовлеченными в противостояние Автоботов и Десептиконов. Только тогда Сэм понимает истинное значение семейного девиза Уитвикки — «нет жертв, нет победы!»

Качество: BDRip-AVC
Исходник Blu-Ray Remux
Формат: MKV
Видео кодек: AVC
Аудио кодек: AC3
Видео: AVC, 1152x480 (2.40:1), 23.976 fps, 3 451 Kbps (0.260 bit/pixel)
Аудио#1: AC-3, 48.0 KHz, 6 ch, 448 Kbps, CBR Дубляж
Аудио#2: AC-3, 48.0 KHz, 6 ch, 448 Kbps, CBR Оригинал
Релиз Рип by White Smoke

Код:

---[Information] [19.03.2014 10:24:58] x264 [info]: frame I:1645  Avg QP:18.54  size: 87569  PSNR Mean Y:44.40 U:45.91 V:46.37 Avg:44.88 Global:44.46
---[Information] [19.03.2014 10:24:58] x264 [info]: frame P:59141 Avg QP:21.99  size: 28799  PSNR Mean Y:41.91 U:44.29 V:45.01 Avg:42.62 Global:42.10
---[Information] [19.03.2014 10:24:58] x264 [info]: frame B:145583 Avg QP:23.57  size: 12808  PSNR Mean Y:40.93 U:43.64 V:44.62 Avg:41.73 Global:41.10
---[Information] [19.03.2014 10:24:58] x264 [info]: consecutive B-frames:  5.4%  8.0% 14.2% 35.6% 13.5% 18.1%  2.4%  1.5%  0.5%  0.3%  0.3%[/spoiler]

[code]Общее
Уникальный идентификатор         : 246086012569190487366978382356284470291 (0xB922712A33730E16BA866749BA307413)
Полное имя                       : C:GamesTransformers.2007.BDRip-AVC.by White Smoke.R.G. PiratFilms.MKV
Формат                           : Matroska
Размер файла                     : 4,36 Гбайт
Продолжительность                : 2 ч. 23 м.
Общий поток                      : 4348 Кбит/сек
Название фильма                  : Transformers 720p.mkv.mkv
Дата кодирования                 : UTC 2014-03-19 13:59:29
Программа кодирования            : mkvmerge v6.8.0 ('Theme for Great Cities') 64bit built on Mar  2 2014 21:34:26
Библиотека кодирования           : libebml v1.3.0 + libmatroska v1.4.1

Видео
Идентификатор                    : 1
Формат                           : AVC
Формат/Информация                : Advanced Video Codec
Профиль формата                  : High@L4.1
Параметр CABAC формата           : Да
Параметр ReFrames формата        : 6 кадры
Идентификатор кодека             : V_MPEG4/ISO/AVC
Продолжительность                : 2 ч. 23 м.
Битрейт                          : 3451 Кбит/сек
Ширина                           : 1152 пикс.
Высота                           : 480 пикс.
Соотношение сторон               : 2,40:1
Частота кадров                   : 23,976 кадр/сек
Цветовое пространство            : YUV
Подвыборка цветности             : 4:2:0
Битовая глубина                  : 8 бит
Тип развёртки                    : Прогрессивная
Бит/(Пиксели*Кадры)              : 0.260
Размер потока                    : 3,37 Гбайт (77%)
Библиотека кодирования           : x264 core 138 r2358 9e941d1
Настройки программы              : cabac=1 / ref=6 / deblock=1:-2:-1 / analyse=0x3:0x113 / me=umh / subme=9 / psy=1 / psy_rd=1.00:0.00 / mixed_ref=1 / me_range=32 / chroma_me=1 / trellis=2 / 8x8dct=1 / cqm=0 / deadzone=21,11 / fast_pskip=0 / chroma_qp_offset=-2 / threads=6 / lookahead_threads=1 / sliced_threads=0 / nr=0 / decimate=1 / interlaced=0 / bluray_compat=0 / constrained_intra=0 / bframes=10 / b_pyramid=2 / b_adapt=2 / b_bias=0 / direct=1 / weightb=1 / open_gop=0 / weightp=2 / keyint=240 / keyint_min=23 / scenecut=40 / intra_refresh=0 / rc_lookahead=40 / rc=2pass / mbtree=1 / bitrate=3451 / ratetol=1.0 / qcomp=0.70 / qpmin=0 / qpmax=69 / qpstep=4 / cplxblur=20.0 / qblur=0.5 / ip_ratio=1.40 / aq=1:1.00
Язык                             : English

Аудио #1
Идентификатор                    : 2
Формат                           : AC-3
Формат/Информация                : Audio Coding 3
Расширение режима                : CM (complete main)
Идентификатор кодека             : A_AC3
Продолжительность                : 2 ч. 23 м.
Вид битрейта                     : Постоянный
Битрейт                          : 448 Кбит/сек
Канал(ы)                         : 6 канала(ов)
Расположение каналов             : Front: L C R, Side: L R, LFE
Частота                          : 48,0 КГц
Битовая глубина                  : 16 бит
Метод сжатия                     : С потерями
Размер потока                    : 460 Мбайт (10%)

Аудио #2
Идентификатор                    : 3
Формат                           : AC-3
Формат/Информация                : Audio Coding 3
Расширение режима                : CM (complete main)
Идентификатор кодека             : A_AC3
Продолжительность                : 2 ч. 23 м.
Вид битрейта                     : Постоянный
Битрейт                          : 448 Кбит/сек
Канал(ы)                         : 6 канала(ов)
Расположение каналов             : Front: L C R, Side: L R, LFE
Частота                          : 48,0 КГц
Битовая глубина                  : 16 бит
Метод сжатия                     : С потерями
Размер потока                    : 460 Мбайт (10%)

piratbit.org



Скачать Трансформеры через торрент http://pic.kartinco.top/images/6/upi2p.jpg Скачать фильм Трансформеры через торрент бесплантно в хорошем качестве Описание: В течение многих столетий две расы роботов-инопланетян — Автоботы и Десептиконы — вели войну, ставкой в которой была судьба ... 9 10 11
Info! Золотая раздача, скачанное не засчитывается.
Торрент: Зарегистрирован [2014-03-19 19:50] · скачан: 268 раз
Статус: √ проверено
Размер: 4.36 GB
Как cкачать? Как скачать Трансформеры через торрент | qTorrent

28-11-2019 20:33  

Отключить всю рекламу на сайте

    Дорогой пользователь! Огромная просьба, поблагодарите релизера, оцените раздачу и оставьте свои комментарий, если Вы скачали Трансформеры через торрент бесплатно! Внесите свою лепту в развитие PiratBit!
    Комментировать посты могут только пользователи прошедшие не сложную регистрацию
    Показать сообщения:    

    Трансформеры через торрент
    Скачать бесплатно Трансформеры
    Трансформеры скачать торрент
    Трансформеры смотреть онлайн
    Cкачать фильм Трансформеры бесплатно
    Трансформеры скачать торрент в хорошем качестве
    Трансформеры смотреть онлайн бесплатно в хорошем качестве


    Вы не можете начинать темы
    Вы не можете отвечать на сообщения
    Вы не можете редактировать свои сообщения
    Вы не можете удалять свои сообщения
    Вы не можете голосовать в опросах
    Вы не можете прикреплять файлы к сообщениям
    Вы можете скачивать файлы