2 сезон

iTunes

MVO

1

2 сезон

iTunes

iTunes

1 сезон

RePack

30

Новинка

ВАЖНО

ИГРА 18+

pack

RePack

MK11
pack

Легкие деньги

RePack

jed

RePack

fifa19

RePack

RDR2

RePack

NEED FOR SPEED™ PAYBACK

4 сезон

9 сезон

Бесстыжие 9 сезон

Все сериалы

все сериалы на PB.wtf

RePack

FAR CRY 5

Anonymous, доброй ночи, мы не успеваем собрать деньги на оплату серверов за декабрь и январь, помогите нам пожалуйста в это трудное время. В качестве благодарности мы отключим Вам всю рекламу на сайте (укажите свой ник в строку Ваше имя)!

×
  
Magnet ссылка

Звено (Роман Романовский) [2012, Россия, триллер, экранизация, DVDRip] piratbit.org

Звено через торрент piratbit.org

Размер: 1.46 GB | Добавлен: 6 лет 10 мес. назад | Торрент скачан:314 раз
Скачать  

23-03-2014 15:45 Звено Скачать торрент  

Звено

«Прошлое не ушло...»

  • Год выпуска: 2012
  • Страна: Россия
  • Жанр: триллер, экранизация
  • Продолжительность: 02:02:03
  • Перевод: Не требуется

  • Субтитры: Нет!
  • Режиссер: Роман Романовский
  • В ролях:

    Владимир Смирнов (Павел Храмов), Кристина Казинская (Таня Шниткина), Владимир Фролов (Владимир Иванович), Валентин Голубенко (дядя Костя), Виктор Полторацкий (сельский участковый), Вадим Померанцев (сельский доктор), Александр Сибирцев (старлей)
    • Описание:
      Молодой ученый, пытаясь избежать срочной службы в химических войсках, выбирает альтернативную службу воспитателем в подмосковном детском доме, расположившемся в древней усадьбе. По странному стечению обстоятельств, несколько его предшественников на этой должности, странным образом погибали. Вскоре молодой человек понимает, что он попал в это место не случайно и, если он не вырвется из ловушки, в которую его заманили обстоятельства, то он станет следующим звеном в выстроенной кем-то цепи.


    • Качество: DVDRip
    • Формат: AVI
    • Видео кодек: DivX 5
    • Аудио кодек:AC3
    • Видео: DivX 5, 720x400 (16:9), 1506 kbps, 25 fps, 0,209 bpp
    • Аудио: AC3 / 2.0 / 44 kHz / 192 kbps / 16 bit


    Код:

    General
    Complete name                            : D:ТорентыZveno.avi
    Format                                   : AVI
    Format/Info                              : Audio Video Interleave
    File size                                : 1.46 GiB
    Duration                                 : 2h 2mn
    Overall bit rate                         : 1 708 Kbps
    Writing application                      : Lavf52.93.0
    Writing library                          : VirtualDub build 35503/release

    Video
    ID                                       : 0
    Format                                   : MPEG-4 Visual
    Format settings, BVOP                    : No
    Format settings, QPel                    : No
    Format settings, GMC                     : No warppoints
    Format settings, Matrix                  : Default (H.263)
    Codec ID                                 : DX50
    Codec ID/Hint                            : DivX 5
    Duration                                 : 2h 2mn
    Bit rate                                 : 1 507 Kbps
    Width                                    : 720 pixels
    Height                                   : 400 pixels
    Display aspect ratio                     : 16:9
    Frame rate                               : 25.000 fps
    Color space                              : YUV
    Chroma subsampling                       : 4:2:0
    Bit depth                                : 8 bits
    Scan type                                : Progressive
    Compression mode                         : Lossy
    Bits/(Pixel*Frame)                       : 0.209
    Stream size                              : 1.28 GiB (88%)
    Writing library                          : DivX 6.8.5 (UTC 2009-08-20)

    Audio
    ID                                       : 1
    Format                                   : AC-3
    Format/Info                              : Audio Coding 3
    Mode extension                           : CM (complete main)
    Codec ID                                 : 2000
    Duration                                 : 2h 2mn
    Bit rate mode                            : Constant
    Bit rate                                 : 192 Kbps
    Channel(s)                               : 2 channels
    Channel positions                        : Front: L R
    Sampling rate                            : 44.1 KHz
    Bit depth                                : 16 bits
    Compression mode                         : Lossy
    Stream size                              : 167 MiB (11%)
    Alignment                                : Aligned on interleaves
    Interleave, duration                     : 40 ms (1.00 video frame)
    Interleave, preload duration             : 522 ms

    Скриншоты:

    Трейлеры к фильмам [2014]
    © Оформление by Raven piratbit.org



  • Скачать Звено через торрент http://s11.postimg.org/q0yzret7n/title.jpg Скачать фильм Звено через торрент бесплантно в хорошем качестве Описание:Молодой ученый, пытаясь избежать срочной службы в химических войсках, выбирает альтернативную службу воспитателем в подмосковном ... 9.8 10 6
    Торрент: Зарегистрирован [2014-03-23 15:45] · скачан: 314 раз
    Статус: √ проверено
    Размер: 1.46 GB
    Как cкачать? Как скачать Звено через торрент | UTorrent

    % Раздел Тема Автор DL S | L
    Иностранные мультфильмы [ 1.42 GB ] Потерянное звено / Missing Link [2019 мультфильм BDRip] - Twi7ter Скачать
    10 | 0
    Иностранные мультфильмы [ 707 MB ] Потерянное звено / Missing Link [2019 мультфильм HDRip ""] coc900 Скачать
    1 | 0
    T Ultra HD (UHD: 2K, 4K, 8K) [ 11.57 GB ] Потерянное звено / Missing Link [2019 мультфильм UHD BDRip 2160p] MVO [HDRezka Studio] sheker187 Скачать
    1 | 0
    T Зарубежные Мультфильмы (BDRip 1080p, 720p, Blu-ray, BD-Remux) [ 3.05 GB ] Потерянное звено / Missing Link [2019 мультфильм BDRip 720p] DUB [HDRezka Studio] bober100 Скачать
    2 | 0
    T Иностранные мультфильмы [ 1.46 GB ] Потерянное звено / Missing Link [2019 мультфильм BDRip] DUB [HDRezka Studio] bober100 Скачать
    8 | 0
    T Зарубежные Мультфильмы (BDRip 1080p, 720p, Blu-ray, BD-Remux) [ 5.51 GB ] Потерянное звено / Missing Link [2019 мультфильм BDRip 1080p] MVO [HDRezka Studio] bober100 Скачать
    1 | 0
    T Иностранные мультфильмы [ 1.59 GB ] Потерянное звено / Missing Link [2019 мультфильм BDRip-AVC] DUB [HDRezka Studio] bober100 Скачать
    1 | 0


    Последний раз редактировалось: Ворон (2014-04-10 14:58), всего редактировалось 1 раз

    28-11-2019 20:33  

    Отключить всю рекламу на сайте

    01-08-2014 19:33 Звено Скачать торрент  

    фильм хороший, но комедия излишне, как и полукомическая музыка.
    в принципе я не против мата, но тут он лишний или преподнесён не так.piratbit.org



    01-08-2014 19:35 Звено Скачать торрент  

    Соломон Немни писал(а):

    [qpost=undefined] рип с FullHD

    Пока кроме DVDRip лучше не виделpiratbit.org



      Дорогой пользователь! Огромная просьба, поблагодарите релизера, оцените раздачу и оставьте свои комментарий, если Вы скачали Звено через торрент бесплатно! Внесите свою лепту в развитие PiratBit!
      Комментировать посты могут только пользователи прошедшие не сложную регистрацию
      Показать сообщения:    

      Звено через торрент
      Скачать бесплатно Звено
      Звено скачать торрент
      Звено смотреть онлайн
      Cкачать фильм Звено бесплатно
      Звено скачать торрент в хорошем качестве
      Звено смотреть онлайн бесплатно в хорошем качестве


      Вы не можете начинать темы
      Вы не можете отвечать на сообщения
      Вы не можете редактировать свои сообщения
      Вы не можете удалять свои сообщения
      Вы не можете голосовать в опросах
      Вы не можете прикреплять файлы к сообщениям
      Вы можете скачивать файлы