1 сезон

3 сезон

iTunes

1

iTunes

MVO

iTunes

13

1 сезон

RePack

30

Deluxe

pack

Лицензия

ВАЖНО

ИГРА 18+

pack

RePack

MK11

RePack

jed

RePack

fifa19

RePack

RDR2

RePack

NEED FOR SPEED™ PAYBACK

4 сезон

9 сезон

Бесстыжие 9 сезон

Все сериалы

все сериалы на PB.wtf

RePack

FAR CRY 5

Anonymous, доброй ночи, мы катастрофически не успеваем собрать деньги на оплату серверов, помогите нам пожалуйста 5,10,15р., для нас важна любая помощь . В качестве благодарности мы отключим Вам всю рекламу на сайте (укажите свой ник в строку Ваше имя)!

×
  
Magnet ссылка

Репликант / Replicant (Ринго Лам / Ringo Lam) [2001, США, Фантастика, Боевик, Триллер, BDRip] DUB piratbit.org

Репликант через торрент piratbit.org

Размер: 1.46 GB | Добавлен: 7 лет 3 мес. назад | Торрент скачан:88 раз
Скачать  

29-03-2014 19:39 Репликант Скачать торрент  

Репликант / Replicant

«A ruthless killer... to destroy him, they had to create him»

  • Год выпуска: 2001
  • Страна: США
  • Жанр: фантастика, боевик, триллер

  • Продолжительность: 01:41:01
  • Перевод: Профессиональный [Дубляж - Лицензия]

  • Субтитры: Нет
  • Режиссер: Ринго Лам / Ringo Lam
  • В ролях:

    Жан-Клод Ван Дамм (Replicant /Edward Garrotte), Майкл Рукер (Det. Jake Riley), Катрин Дент (Angie), Брэндон Джеймс Олсон (Danny), Пэм Хайатт (Mrs. Riley), Йен Робисан (Stan Reisman), Аллан Грэй (Roarke), Джеймс Хатсон (Snotty Concierge), Джейми Нокс (Wendy Wyckham), Пол МакДжиллион (Captain), Крис Келли (Chris), Питер Флемминг (Paul)
    • Описание:
      Полиция сбилась с ног, разыскивая серийного убийцу, совершившего более десятка нападений на одиноких матерей с детьми. Безжалостный маньяк оставляет на месте преступления всегда одно и то же - истерзанный и сожженный труп женщины и практически никаких улик, позволяющих выйти на его след. На помощь полиции приходит национальная служба безопасности, по заданию которой ученые, используя один-единственный волос убийцы, найденный на месте преступления, создали его генетического двойника - репликанта.
      Специалисты полагают, что клон, благодаря генетической памяти, способен вывести их на след оригинала. Провести операцию поручают полицейскому Джейку, который долго и безуспешно преследовал маньяка и даже стал его личным врагом. Сможет ли Джейк с помощью своего подопечного - репликанта - найти и обезвредить опасного преступника или же «голос крови» победит и в городе появится еще один близнец-убийца?...

    Мировая премьера:11 мая 2001

    • Качество: BDRip
    • Формат: AVI
    • Видео кодек: XviD
    • Аудио кодек:AC3
    • Видео: XviD, 720x400 (16:9), 1607 kbps, 23,976 fps, 0,233 bpp
    • Аудио: AC3 / 5.1 / 48 kHz / 448 kbps / 16 bit


    Код:

    General
    Complete name                            : D:ТорентыReplicant_DUB_[rutracker.org]_by_vasapel.avi
    Format                                   : AVI
    Format/Info                              : Audio Video Interleave
    File size                                : 1.46 GiB
    Duration                                 : 1h 41mn
    Overall bit rate                         : 2 065 Kbps
    Movie name                               : Репликант / Replicant
    Director                                 : vasapel
    Genre                                    : Фантастика, Боевик, Триллер
    Writing application                      : VirtualDubMod 1.5.10.2 (build 2540/release)
    Original source form/Name                : Movie
    Copyright                                : rutracker.org / All Films
    Comment                                  : Год: 2001 / Бюджет: $17 000 000

    Video
    ID                                       : 0
    Format                                   : MPEG-4 Visual
    Format profile                           : Advanced Simple@L5
    Format settings, BVOP                    : 3
    Format settings, QPel                    : No
    Format settings, GMC                     : No warppoints
    Format settings, Matrix                  : Custom
    Codec ID                                 : XVID
    Codec ID/Hint                            : XviD
    Duration                                 : 1h 41mn
    Bit rate                                 : 1 608 Kbps
    Width                                    : 720 pixels
    Height                                   : 400 pixels
    Display aspect ratio                     : 16:9
    Frame rate                               : 23.976 fps
    Color space                              : YUV
    Chroma subsampling                       : 4:2:0
    Bit depth                                : 8 bits
    Scan type                                : Progressive
    Compression mode                         : Lossy
    Bits/(Pixel*Frame)                       : 0.233
    Stream size                              : 1.13 GiB (78%)
    Writing library                          : XviD 1.2.1 (UTC 2008-12-04)

    Audio
    ID                                       : 1
    Format                                   : AC-3
    Format/Info                              : Audio Coding 3
    Mode extension                           : CM (complete main)
    Codec ID                                 : 2000
    Duration                                 : 1h 41mn
    Bit rate mode                            : Constant
    Bit rate                                 : 448 Kbps
    Channel(s)                               : 6 channels
    Channel positions                        : Front: L C R, Side: L R, LFE
    Sampling rate                            : 48.0 KHz
    Bit depth                                : 16 bits
    Compression mode                         : Lossy
    Stream size                              : 324 MiB (22%)
    Alignment                                : Split accross interleaves
    Interleave, duration                     : 42 ms (1.00 video frame)
    Interleave, preload duration             : 500 ms

    Скриншоты:

    Трейлеры к фильмам [2014]
    © Оформление by Raven piratbit.org



  • Скачать Репликант через торрент https://pic1.kartinco.top/images/61/hnt1m.jpg Скачать фильм Репликант через торрент бесплантно в хорошем качестве Описание:Полиция сбилась с ног, разыскивая серийного убийцу, совершившего более десятка нападений на одиноких матерей с детьми. ... 10 10 8
    Торрент: Зарегистрирован [2014-03-29 19:39] · скачан: 88 раз
    Статус: √ проверено
    Размер: 1.46 GB
    Как cкачать? Как скачать Репликант через торрент | UTorrent

    % Раздел Тема Автор DL S | L
    Фильмы [HD 720p, 1080p] (Хороший звук DUB, MVO) [ 14.08 GB ] Репликант / Replicant [2001 BDRip 1080p by msltel] DUB 3 x MVO 3 x AVO msltel Скачать
    1 | 0
    Фильмы [HD 720p, 1080p] (Хороший звук DUB, MVO) [ 5.85 GB ] Репликант / Replicant [2001 BDRip 720p by msltel] DUB 3 x MVO 3 x AVO msltel Скачать
    1 | 0

    28-11-2019 20:33  

    Отключить всю рекламу на сайте

      Дорогой пользователь! Огромная просьба, поблагодарите релизера, оцените раздачу и оставьте свои комментарий, если Вы скачали Репликант через торрент бесплатно! Внесите свою лепту в развитие PiratBit!
      Комментировать посты могут только пользователи прошедшие не сложную регистрацию
      Показать сообщения:    

      Репликант через торрент
      Скачать бесплатно Репликант
      Репликант скачать торрент
      Репликант смотреть онлайн
      Cкачать фильм Репликант бесплатно
      Репликант скачать торрент в хорошем качестве
      Репликант смотреть онлайн бесплатно в хорошем качестве


      Вы не можете начинать темы
      Вы не можете отвечать на сообщения
      Вы не можете редактировать свои сообщения
      Вы не можете удалять свои сообщения
      Вы не можете голосовать в опросах
      Вы не можете прикреплять файлы к сообщениям
      Вы можете скачивать файлы