Доктор Стрэндж

Лицензия

Добыча

Дубляж

Дом дракона

1 сезон

Тор

Дубляж

В эфире

Дубляж

Там, где раки поют

MVO

Властелин колец

1 сезон

Ultimate

pack

Рекомендуем

30

Пиратка

ВАЖНО

ВАЖНО

Ghostwire

Пиратка

jed

RePack

nioh2

RePack

RDR2

RePack

NEED FOR SPEED™ PAYBACK

RePack

скачать торрент

Кинопоиск HD

Острые козырьки 6 сезон

6 сезон

FAR CRY 6

RePack

скачать торрент

Лицензия

скачать торрент

MVO

1

1 сезон

скачать торрент

1 сезон

скачать торрент

Лицензия

  

Король чёртова острова / Kongen av Bastøy (Мариус Хольст) [2010 г., драма, BDRip 720p] VO Zamez + Original

Король чёртова острова через торрент piratbit.org

Размер: 7.01 GB | Добавлен: 8 лет 7 мес. назад | Торрент скачан:21 раз
Смотреть онлайн | Скачать   

30-03-2014 14:41 Король чёртова острова Скачать торрент  

Король чёртова острова / Kongen av BastøyГод выпуска: 2010
Страна: Норвегия, Франция, Швеция, Польша
Жанр: драма
Продолжительность: 01:56:18
Перевод: Любительский (одноголосый, закадровый) ZAMEZ по переводу lingua.pura
Субтитры: норвежские, датские, шведские /русские - отдельно/

Режиссер: Мариус Хольст
Продюссер: Карин Юлсруд, Антуан де Клермон-Тоннер, Матильда Деби
Сценарий: Деннис Магнуссон, Эрик Шмид, Метте М. Больстад

Бюджет: NOK 54 000 000
Премьера в мире: 17 декабря 2010







В ролях: Стеллан Скарсгард, Бенжамин Хелстад, Кристоффер Йонер, Тронд Нилссен, Мортен Лёвстад, Даниель Берг, Один Гинесон Брёдеруд, Магнар Боттен, Магнус Ланглете


Описание: Норвегия начала XX века. Зима. На острове Бастёй, что в Осло фьорде, расположена колония для бездомных подростков. Их содержат в поистине садистских условиях: психологическое давление и унижение — это методы, с помощью которых охрана держит их в узде. Им не дают никакого образования, зато используют в качестве дешевой рабочей силы. 11—18 летние подростки выживают, благодаря вынужденной адаптации к нечеловеческим условиям. Они жестоки, они вынуждены договариваться друг с другом, они покупают и продают.
Эрлинг, очередной отщепенец 17 лет, волей судьбы попавший на остров, в целях самозащиты случайно убивает офицера, и следующей весной, когда ему исполнится 18, его должны переправить в тюрьму для взрослых. По сути, Эрлинг доживает свою последнюю зиму, потому что перевод в другую тюрьму означает для него неминуемую смерть. Но у него совсем другие планы. Он решает сделать невозможное — сбежать с Бастёя, острова Дьявола.





Доп. информация: за русские субтитры благодарность san445_445

Качество: BDRip 720p
Формат: MKV
Видео кодек: MPEG-4 AVC
Аудио кодек: AC3
Видео: MPEG-4 AVC, 1280x544, 7350 кбит/сек, 24.00 fps
Аудио#1: 48 kHz, AC3 Dolby Digital, 3/2 (L,C,R,l,r) + LFE ch, ~640.00 kbps avg ZAMEZ
Аудио#2: 48 kHz, AC3 Dolby Digital, 3/2 (L,C,R,l,r) + LFE ch, ~640.00 kbps avg original
Релиз от:
лорди74
Формат : Matroska
Версия формата : Version 2
Размер файла : 7,01 Гбайт
Продолжительность : 1 ч. 56 м.
Общий поток : 8631 Кбит/сек
Дата кодирования : UTC 2011-09-29 13:06:27
Программа кодирования : mkvmerge v3.2.0 ('Beginnings') built on Feb 12 2010 16:46:17
Библиотека кодирования : libebml v0.7.9 + libmatroska v0.8.1
Видео
Идентификатор : 1
Формат : AVC
Формат/Информация : Advanced Video Codec
Профиль формата : High@L4.1
Параметр CABAC формата : Да
Параметр ReFrames формата : 11 кадров
Параметры GOP формата : M=1, N=24
Идентификатор кодека : V_MPEG4/ISO/AVC
Продолжительность : 1 ч. 56 м.
Битрейт : 7350 Кбит/сек
Ширина : 1280 пикс.
Высота : 544 пикс.
Соотношение сторон : 2,35:1
Частота кадров : 24,000 кадр/сек
Цветовое пространство : YUV
Подвыборка цветности : 4:2:0
Битовая глубина : 8 бит
Тип развёртки : Прогрессивная
Бит/(Пиксели*Кадры) : 0.440
Размер потока : 5,83 Гбайт (83%)
Библиотека кодирования : x264 core 116 r2074 2641b9e
Настройки программы : cabac=1 / ref=11 / deblock=1:-3:-3 / analyse=0x3:0x133 / me=umh / subme=10 / psy=1 / psy_rd=1.10:0.00 / mixed_ref=1 / me_range=24 / chroma_me=1 / trellis=2 / 8x8dct=1 / cqm=0 / deadzone=21,11 / fast_pskip=0 / chroma_qp_offset=-2 / threads=12 / sliced_threads=0 / nr=0 / decimate=0 / interlaced=0 / bluray_compat=0 / constrained_intra=0 / bframes=8 / b_pyramid=2 / b_adapt=2 / b_bias=0 / direct=3 / weightb=1 / open_gop=0 / weightp=2 / keyint=250 / keyint_min=24 / scenecut=40 / intra_refresh=0 / rc_lookahead=60 / rc=2pass / mbtree=1 / bitrate=7350 / ratetol=1.0 / qcomp=0.60 / qpmin=0 / qpmax=69 / qpstep=4 / cplxblur=20.0 / qblur=0.5 / vbv_maxrate=50000 / vbv_bufsize=50000 / nal_hrd=none / ip_ratio=1.40 / aq=1:0.70
Язык : Norwegian
Аудио #1
Идентификатор : 2
Формат : AC-3
Формат/Информация : Audio Coding 3
Расширение режима : CM (complete main)
Идентификатор кодека : A_AC3
Продолжительность : 1 ч. 56 м.
Вид битрейта : Постоянный
Битрейт : 640 Кбит/сек
Каналы : 6 каналов
Расположение каналов : Front: L C R, Side: L R, LFE
Частота : 48,0 КГц
Битовая глубина : 16 бит
Метод сжатия : С потерями
Размер потока : 532 Мбайт (7%)
Заголовок : VO ZAMEZ
Язык : Russian
Аудио #2
Идентификатор : 3
Формат : AC-3
Формат/Информация : Audio Coding 3
Расширение режима : CM (complete main)
Идентификатор кодека : A_AC3
Продолжительность : 1 ч. 56 м.
Вид битрейта : Постоянный
Битрейт : 640 Кбит/сек
Каналы : 6 каналов
Расположение каналов : Front: L C R, Side: L R, LFE
Частота : 48,0 КГц
Битовая глубина : 16 бит
Метод сжатия : С потерями
Размер потока : 532 Мбайт (7%)
Язык : Norwegian
Текст #1
Идентификатор : 4
Формат : UTF-8
Идентификатор кодека : S_TEXT/UTF8
Идентификатор кодека/Информация : UTF-8 Plain Text
Язык : Norwegian
Текст #2
Идентификатор : 5
Формат : UTF-8
Идентификатор кодека : S_TEXT/UTF8
Идентификатор кодека/Информация : UTF-8 Plain Text
Язык : Danish
Текст #3
Идентификатор : 6
Формат : UTF-8
Идентификатор кодека : S_TEXT/UTF8
Идентификатор кодека/Информация : UTF-8 Plain Text
Язык : Swedish
Меню
00:00:00.000 : :1
00:05:37.500 : :2
00:12:53.000 : :3
00:19:09.542 : :4
00:25:01.250 : :5
00:30:53.667 : :6
00:37:29.667 : :7
00:40:59.667 : :8
00:47:01.958 : :9
00:53:14.125 : :10
00:59:16.417 : :11
01:06:52.917 : :12
01:13:47.458 : :13
01:20:56.458 : :14
01:26:52.375 : :15
01:34:22.208 : :16
01:39:51.000 : :17
01:49:49.625 : :18


Король чёртова острова скачать торрент





Скачать Король чёртова острова через торрент https://pic1.kartinco.top/images/61/dw1uf.jpg Скачать, смотреть онлайн Король чёртова острова бесплантно в хорошем качестве Описание: Норвегия начала XX века. Зима. На острове Бастёй, что в Осло фьорде, расположена колония для бездомных подростков. Их содержат в ... 10 10 4
Info! Золотая раздача, скачанное не засчитывается.
Торрент: Зарегистрирован [2014-03-30 14:41] · скачан: 21 раз
Статус: √ проверено
Размер: 7.01 GB
Как cкачать? Как скачать Король чёртова острова через торрент | UTorrent

28-11-2019 20:33  


Отключить вcю реклaмy на сайте, в т.ч. и в плеере онлайн просмотра!

    Дорогой пользователь! Огромная просьба, поблагодарите релизера, оцените раздачу и оставьте свои комментарий, если Вы скачали Король чёртова острова через торрент бесплатно!!
    Комментировать посты могут только пользователи прошедшие не сложную регистрацию
    Показать сообщения:    


    Король чёртова острова через торрент
    Скачать бесплатно Король чёртова острова
    Король чёртова острова скачать торрент
    Король чёртова острова смотреть онлайн
    Cкачать фильм Король чёртова острова бесплатно
    Король чёртова острова скачать торрент в хорошем качестве
    Король чёртова острова смотреть онлайн бесплатно в хорошем качестве
    Вы не можете начинать темы
    Вы не можете отвечать на сообщения
    Вы не можете редактировать свои сообщения
    Вы не можете удалять свои сообщения
    Вы не можете голосовать в опросах
    Вы не можете прикреплять файлы к сообщениям
    Вы можете скачивать файлы
    Король чёртова острова / Kongen av Bastøy [2010 г., драма, BDRip 720p] VO Zamez + Original смотреть онлайн, скачать торрент picoco.icu