1 сезон

1 сезон

iTunes

1

iTunes

Кинопоиск HD

iTunes

13

1 сезон

RePack

30

Deluxe

ВАЖНО

ИГРА 18+

pack

RePack

MK11
pack

Легкие деньги

RePack

jed

RePack

fifa19

RePack

RDR2

RePack

NEED FOR SPEED™ PAYBACK

4 сезон

9 сезон

Бесстыжие 9 сезон

Все сериалы

все сериалы на PB.wtf

RePack

FAR CRY 5
  
Magnet ссылка

Зло / Ondskan (Микаэль Хофстрём) [2003 г., драма, BDRip-AVC] DVO (Союз-Видео) + Sub Rus + Original Swe piratbit.org

Зло через торрент piratbit.org

Размер: 2.92 GB | Добавлен: 7 лет 1 мес. назад | Торрент скачан:8 раз
Скачать  

30-03-2014 17:00 Зло Скачать торрент  

Зло / OndskanГод выпуска: 2003
Страна: Швеция, Дания
Жанр: драма
Продолжительность: 01:53:25
Перевод: Профессиональный (двухголосый закадровый) (Союз-Видео)
Субтитры: русские, английские

Режиссер: Микаэль Хофстрём
Продюссер: Ингемар Лейжонборг, Ганс Леннерхеден, Мальте Форселл
Сценарий: Ганс Гуннарссон, Микаэль Хофстрём, Клас Остергрен

Бюджет: SEK 20 000 000
Премьера в мире: 16 мая 2003







В ролях: Андреас Уилсон, Хенрик Лундстрем, Густаф Скарсгард, Линда Зиллиакус, Джеспер Сален, Филип Берг, Фредрик аф Трамп, Ричард Даниэльссон, Мартин Сване, Рустан Бломквист




Описание: Стокгольм, 50-е годы прошлого века. Отчим 16-летнего Эрика «в воспитательных целях» регулярно избивает своего отпрыска, который в любой конфликтной ситуации тоже всегда готов пустить в ход кулаки. После очередной драки в школе Эрика отправляют в частную школу-интернат, где учащиеся старших классов занимаются воспитанием младшего поколения.
Эрик противостоит всему миру, который, кажется, всеми силами пытается не дать ему добиться своей цели — ученой степени. Он не слушает ничьих советов, и окружающим это не нравится.





Качество: BDRip-AVC
Формат: MKV
Видео кодек: MPEG-4 AVC
Аудио кодек: AC3
Видео: MPEG-4 AVC Video / 2787 Кбит/сек / 1152x614 / 23,976 / 16:9 / High Profile 4.1
Аудио#1: Russian: AC3 / Dolby Digital Audio / 5.1 / 48 kHz / 448 kbps |DVO|
Аудио#2: Swedish: AC3 / Dolby Digital Audio / 5.1 / 48 kHz / 448 kbps
Релиз от:
Deerhoof
Общее
Уникальный идентификатор : 247427560236191434269476056862629029765 (0xBA24D0925011FBC5A766BF670C37E785)
Полное имя : E:ЗлоOndskan.2003.BDRip-AVC_by_Deerhoof.mkv
Формат : Matroska
Версия формата : Version 2
Размер файла : 2,92 Гбайт
Продолжительность : 1 ч. 53 м.
Общий поток : 3683 Кбит/сек
Название фильма : Ondskan.2003_Deerhoof
Дата кодирования : UTC 2012-10-01 11:01:04
Программа кодирования : mkvmerge v5.6.0 ('Kenya Kane') built on May 27 2012 16:44:04
Библиотека кодирования : libebml v1.2.3 + libmatroska v1.3.0
Видео
Идентификатор : 1
Формат : AVC
Формат/Информация : Advanced Video Codec
Профиль формата : High@L4.1
Параметр CABAC формата : Да
Параметр ReFrames формата : 11 кадров
Идентификатор кодека : V_MPEG4/ISO/AVC
Продолжительность : 1 ч. 53 м.
Битрейт : 2787 Кбит/сек
Ширина : 1152 пикселя
Высота : 614 пикселей
Соотношение сторон : 1,876
Частота кадров : 23,976 кадра/сек
Цветовое пространство : YUV
Субдискретизация насыщенности : 4:2:0
Битовая глубина : 8 бит
Тип развёртки : Прогрессивная
Бит/(Пиксели*Кадры) : 0.164
Размер потока : 2,15 Гбайт (74%)
Заголовок : Ondskan.2003.BDRip-AVC_by_Deerhoof
Библиотека кодирования : x264 core 125 r2200 999b753
Настройки программы : cabac=1 / ref=11 / deblock=1:-2:-1 / analyse=0x3:0x133 / me=umh / subme=11 / psy=1 / psy_rd=0.95:0.05 / mixed_ref=1 / me_range=48 / chroma_me=1 / trellis=2 / 8x8dct=1 / cqm=0 / deadzone=21,11 / fast_pskip=0 / chroma_qp_offset=-3 / threads=6 / lookahead_threads=1 / sliced_threads=0 / nr=0 / decimate=1 / interlaced=0 / bluray_compat=0 / constrained_intra=0 / bframes=10 / b_pyramid=2 / b_adapt=2 / b_bias=0 / direct=3 / weightb=0 / open_gop=0 / weightp=2 / keyint=240 / keyint_min=23 / scenecut=40 / intra_refresh=0 / rc_lookahead=80 / rc=2pass / mbtree=1 / bitrate=2787 / ratetol=1.0 / qcomp=0.60 / qpmin=0 / qpmax=69 / qpstep=4 / cplxblur=20.0 / qblur=0.5 / ip_ratio=1.40 / aq=2:0.90
Язык : Swedish
Основные цвета : BT.709-5, BT.1361, IEC 61966-2-4, SMPTE RP177
Характеристики трансфера : BT.709-5, BT.1361
Коэффициенты матрицы : BT.709-5, BT.1361, IEC 61966-2-4 709, SMPTE RP177
Аудио #1
Идентификатор : 2
Формат : AC-3
Формат/Информация : Audio Coding 3
Расширение режима : CM (complete main)
Идентификатор кодека : A_AC3
Продолжительность : 1 ч. 53 м.
Вид битрейта : Постоянный
Битрейт : 448 Кбит/сек
Каналы : 6 каналов
Расположение каналов : Front: L C R, Side: L R, LFE
Частота : 48,0 КГц
Битовая глубина : 16 бит
Метод сжатия : С потерями
Размер потока : 363 Мбайт (12%)
Заголовок : Профессиональный (двухголосый закадровый) | Союз-Видео
Язык : Russian
Аудио #2
Идентификатор : 3
Формат : AC-3
Формат/Информация : Audio Coding 3
Расширение режима : CM (complete main)
Идентификатор кодека : A_AC3
Продолжительность : 1 ч. 53 м.
Вид битрейта : Постоянный
Битрейт : 448 Кбит/сек
Каналы : 6 каналов
Расположение каналов : Front: L C R, Side: L R, LFE
Частота : 48,0 КГц
Битовая глубина : 16 бит
Метод сжатия : С потерями
Размер потока : 363 Мбайт (12%)
Язык : Swedish
Текст #1
Идентификатор : 4
Формат : UTF-8
Идентификатор кодека : S_TEXT/UTF8
Идентификатор кодека/Информация : UTF-8 Plain Text
Язык : Russian
Текст #2
Идентификатор : 5
Формат : UTF-8
Идентификатор кодека : S_TEXT/UTF8
Идентификатор кодека/Информация : UTF-8 Plain Text
Язык : English
Меню
00:00:00.000 : en:Chapter 01
00:01:50.400 : en:Chapter 02
00:08:15.720 : en:Chapter 03
00:14:56.040 : en:Chapter 04
00:22:25.560 : en:Chapter 05
00:27:48.480 : en:Chapter 06
00:33:07.800 : en:Chapter 07
00:38:01.920 : en:Chapter 08
00:42:41.640 : en:Chapter 09
00:45:42.720 : en:Chapter 10
00:50:04.320 : en:Chapter 11
00:54:00.000 : en:Chapter 12
00:57:48.840 : en:Chapter 13
01:02:51.840 : en:Chapter 14
01:09:01.440 : en:Chapter 15
01:12:45.720 : en:Chapter 16
01:16:15.480 : en:Chapter 17
01:21:20.040 : en:Chapter 18
01:25:03.840 : en:Chapter 19
01:28:45.240 : en:Chapter 20
01:34:09.720 : en:Chapter 21
01:37:03.960 : en:Chapter 22
01:41:02.040 : en:Chapter 23
01:45:06.720 : en:Chapter 24
01:48:46.600 : en:Chapter 25


Зло скачать торрент


piratbit.org



Скачать Зло через торрент https://pic1.kartinco.top/images/61/subfw.jpg Скачать фильм Зло через торрент бесплантно в хорошем качестве Описание: Стокгольм, 50-е годы прошлого века. Отчим 16-летнего Эрика «в воспитательных целях» регулярно избивает своего отпрыска, который в ... 10 10 4
Info! Золотая раздача, скачанное не засчитывается.
Торрент: Зарегистрирован [2014-03-30 17:00] · скачан: 8 раз
Статус: √ проверено
Размер: 2.92 GB
Как cкачать? Как скачать Зло через торрент | UTorrent

28-11-2019 20:33  

Отключить всю рекламу на сайте

30-03-2014 17:21 Зло Скачать торрент  

неплохое киноpiratbit.org



04-11-2014 22:02 Зло Скачать торрент  

Фильм шикарный. Советую к просмотру. piratbit.org



    Дорогой пользователь! Огромная просьба, поблагодарите релизера, оцените раздачу и оставьте свои комментарий, если Вы скачали Зло через торрент бесплатно! Внесите свою лепту в развитие PiratBit!
    Комментировать посты могут только пользователи прошедшие не сложную регистрацию
    Показать сообщения:    

    Зло через торрент
    Скачать бесплатно Зло
    Зло скачать торрент
    Зло смотреть онлайн
    Cкачать фильм Зло бесплатно
    Зло скачать торрент в хорошем качестве
    Зло смотреть онлайн бесплатно в хорошем качестве


    Вы не можете начинать темы
    Вы не можете отвечать на сообщения
    Вы не можете редактировать свои сообщения
    Вы не можете удалять свои сообщения
    Вы не можете голосовать в опросах
    Вы не можете прикреплять файлы к сообщениям
    Вы можете скачивать файлы