Доктор Стрэндж

Лицензия

Добыча

Дубляж

Уэнсдэй

1 сезон

Тор

Дубляж

В эфире

Дубляж

Там, где раки поют

MVO

Властелин колец

1 сезон

Deluxe

pack

Рекомендуем

30

Пиратка

ВАЖНО

ВАЖНО

Ghostwire

Пиратка

jed

RePack

nioh2

RePack

RDR2

RePack

NEED FOR SPEED™ PAYBACK

RePack

скачать торрент

Кинопоиск HD

Острые козырьки 6 сезон

6 сезон

FAR CRY 6

RePack

скачать торрент

Лицензия

скачать торрент

MVO

1

1 сезон

скачать торрент

1 сезон

скачать торрент

Лицензия

  

Презренный / Scorned (Марк Джонс) [2013 г., Триллер, BDRip 720p] DVO [DeadSno & den904]

Презренный через торрент piratbit.org

Размер: 5.41 GB | Добавлен: 8 лет 8 мес. назад | Торрент скачан:71 раз
Смотреть онлайн | Скачать   

03-04-2014 09:41 Презренный Скачать торрент  


Презренный / Scorned Год выпуска: 2013
Страна: США Horse Head Pictures, ITS Capital, Scorned llc
Жанр: Триллер
Продолжительность: 01:26:22
Перевод: Любительский двухголосый
Перевод: Любительское (двухголосое) [DeadSno & den904]
перевод на русский язык [Antonio] - работа со звуком [Гуннлауг]
Дополнительно: Сохранены оригинальные чаптеры как на Blu-ray


Субтитры: English (отключаемые)

Режиссер: Марк Джонс
Продюссер: Роберт Бомонт, Тодд Блатт, Одри Делани
Сценарий: Марк Джонс, Сэди Кац

Бюджет: $1 700 000
Премьера в мире: 4 февраля 2014



В ролях: Вива Бьянка, Бруклин Брокау, Даг Драклер, Денис Гласс, Рич Баттиста, Марк Джонс, Сэди Кац, Скотт Книсли, Джо Курак, АннаЛинн МакКорд

Описание: Кевин приглашает свою возлюбленную Сэди провести вместе с ним романтичный уик-энд в принадлежащем ему домике, расположенном на живописном озерном берегу. Поначалу они отлично проводят выходные, но затем Сэди случайно становится известно об измене Кевина. Оказывается, долгое время парень крутил роман с её лучшей подругой! Узнав об этом, Сэди приходит в ярость и решает отомстить и своему неверному партнеру и вероломной подруге...
Качество: BDRip 720p
Формат: MKV
Видео кодек: MPEG4-AVC
Аудио кодек: DTS
Видео: MPEG4 Video (H264) 1280x720, 23.98fps, 5 762 Kbps

Аудио#1: DTS 48000Hz, 6ch, 1 510 Kbps Русский
Аудио#2: DTS 48000Hz, 6ch, 1 510 Kbps Английский
Релиз от: CINEMANIA





General
Unique ID : 236745793115672920014234626030696934817 (0xB21B94CAA1C6B032907524AA0D382DA1)
Complete name : H:1 02 04 2014Scorned.2013.Blu.Ray.720p.CINEMANIA.mkv
Format : Matroska
Format version : Version 4 / Version 2
File size : 5.41 GiB
Duration : 1h 26mn
Overall bit rate : 8 959 Kbps
Movie name : Release Group CINEMANIA
Encoded date : UTC 2014-04-02 17:45:02
Writing application : mkvmerge v6.8.0 ('Theme for Great Cities') 64bit built on Mar 2 2014 21:34:26
Writing library : libebml v1.3.0 + libmatroska v1.4.1

Video
ID : 1
Format : AVC
Format/Info : Advanced Video Codec
Format profile : High@L4.1
Format settings, CABAC : Yes
Format settings, ReFrames : 9 frames
Codec ID : V_MPEG4/ISO/AVC
Duration : 1h 26mn
Bit rate : 5 762 Kbps
Width : 1 280 pixels
Height : 720 pixels
Display aspect ratio : 16:9
Frame rate : 23.976 fps
Color space : YUV
Chroma subsampling : 4:2:0
Bit depth : 8 bits
Scan type : Progressive
Bits/(Pixel*Frame) : 0.261
Stream size : 3.48 GiB (64%)
Title : Release Group CINEMANIA
Language : English

Audio #1
ID : 2
Format : DTS
Format/Info : Digital Theater Systems
Codec ID : A_DTS
Duration : 1h 26mn
Bit rate mode : Constant
Bit rate : 1 510 Kbps
Channel(s) : 6 channels
Channel positions : Front: L C R, Side: L R, LFE
Sampling rate : 48.0 KHz
Bit depth : 24 bits
Compression mode : Lossy
Stream size : 933 MiB (17%)
Title : Влад и Снежинка
Language : Russian

Audio #2
ID : 3
Format : DTS
Format/Info : Digital Theater Systems
Codec ID : A_DTS
Duration : 1h 26mn
Bit rate mode : Constant
Bit rate : 1 510 Kbps
Channel(s) : 6 channels
Channel positions : Front: L C R, Side: L R, LFE
Sampling rate : 48.0 KHz
Bit depth : 24 bits
Compression mode : Lossy
Stream size : 933 MiB (17%)
Language : English

Text
ID : 4
Format : UTF-8
Codec ID : S_TEXT/UTF8
Codec ID/Info : UTF-8 Plain Text
Language : English

Menu
00:00:00.000 : en:00:00:00.000
00:09:50.131 : en:00:09:50.131
00:18:44.498 : en:00:18:44.498
00:28:06.560 : en:00:28:06.560
00:36:44.536 : en:00:36:44.536
00:43:12.882 : en:00:43:12.882
00:50:34.740 : en:00:50:34.740
00:56:38.353 : en:00:56:38.353
01:06:42.248 : en:01:06:42.248
01:11:03.885 : en:01:11:03.885
01:15:26.647 : en:01:15:26.647
01:21:30.302 : en:01:21:30.302




Скачать Презренный через торрент https://pic1.kartinco.top/images/61/wu38f.jpg Скачать, смотреть онлайн Презренный бесплантно в хорошем качестве Описание: Кевин приглашает свою возлюбленную Сэди провести вместе с ним романтичный уик-энд в принадлежащем ему домике, расположенном на ... 10 10 3
Info! Золотая раздача, скачанное не засчитывается.
Торрент: Зарегистрирован [2014-04-03 09:41] · скачан: 71 раз
Статус: √ проверено
Размер: 5.41 GB
Как cкачать? Как скачать Презренный через торрент | UTorrent

% Раздел Тема Автор DL S | L
T Фильмы 2013 (Звук TS, Cam, VO, DVO) [ 1.38 GB ] Презренный / Scorned | | HDRip, Любительский двухголосый coc900 Скачать
1 | 0
T Фильмы 2013 (Звук TS, Cam, VO, DVO) [ 747 MB ] Презренный / Scorned | | HDRip,Любительский (двухголосый Ворон Скачать
1 | 0

28-11-2019 20:33  


Отключить вcю реклaмy на сайте, в т.ч. и в плеере онлайн просмотра!

    Дорогой пользователь! Огромная просьба, поблагодарите релизера, оцените раздачу и оставьте свои комментарий, если Вы скачали Презренный через торрент бесплатно!!
    Комментировать посты могут только пользователи прошедшие не сложную регистрацию
    Показать сообщения:    


    Презренный через торрент
    Скачать бесплатно Презренный
    Презренный скачать торрент
    Презренный смотреть онлайн
    Cкачать фильм Презренный бесплатно
    Презренный скачать торрент в хорошем качестве
    Презренный смотреть онлайн бесплатно в хорошем качестве
    Вы не можете начинать темы
    Вы не можете отвечать на сообщения
    Вы не можете редактировать свои сообщения
    Вы не можете удалять свои сообщения
    Вы не можете голосовать в опросах
    Вы не можете прикреплять файлы к сообщениям
    Вы можете скачивать файлы
    Презренный / Scorned [2013 г., Триллер, BDRip 720p] DVO [DeadSno & den904] смотреть онлайн, скачать торрент picoco.icu