Доктор Стрэндж

Лицензия

Добыча

Дубляж

Дом дракона

1 сезон

Тор

Дубляж

В эфире

Дубляж

Там, где раки поют

MVO

Властелин колец

1 сезон

Ultimate

pack

Рекомендуем

30

Пиратка

ВАЖНО

ВАЖНО

Ghostwire

Пиратка

jed

RePack

nioh2

RePack

RDR2

RePack

NEED FOR SPEED™ PAYBACK

RePack

скачать торрент

Кинопоиск HD

Острые козырьки 6 сезон

6 сезон

FAR CRY 6

RePack

скачать торрент

Лицензия

скачать торрент

MVO

1

1 сезон

скачать торрент

1 сезон

скачать торрент

Лицензия

  

Ромео и Джульетта / Romeo and Juliet (Франко Дзеффирелли) [1968 г., Драма,Мелодрада, HDTVRip 720p, Дубляж]

Ромео и Джульетта через торрент piratbit.org

Размер: 4.67 GB | Добавлен: 8 лет 7 мес. назад | Торрент скачан:10 раз
Смотреть онлайн | Скачать   

07-04-2014 16:51 Ромео и Джульетта Скачать торрент  

Ромео и Джульетта / Romeo and Juliet
Год выпуска: 1968
Страна: Великобритания, Италия
Жанр: Драма,Мелодрада
Продолжительность: 02:12:33
Перевод: Дубляж
Субтитры: русские, английские

Режиссер: Франко Дзеффирелли
Продюссер: Джон Брабуне, Энтони Хейвлок-Аллан, Ричард Б. Гудвин
Сценарий: Франко Брузати, Мазолино Д’амико, Франко Дзеффирелли

Бюджет: $38 901 218
Премьера в мире: 4 марта 1968,
G-Нет возрастных ограничений


В ролях: Леонард Уайтинг, Оливия Хасси, Джон МакЭнери, Майло О'Ши, Пэт Хейвуд, Роберт Стивенс, Майкл Йорк, Брюс Робинсон, Пол Хардуик, Наташа Парри, Антонио Пьерфедеричи, Эсмеральда Русполи, Роберто Бисакко, Рой Холдер, Кит Скиннер, Дайсон Ловелл, Ричард Уорвик, Роберто Антонелли, Карло Палмуччи.

Описание: На балу во дворце Капулетти зарождается любовь двух юных существ, судьбою обреченных на ненависть. Ромео Монтекки и Джульетта Капулетти полюбили друг друга на свою беду, ведь их семьи ведут смертельную вражду уже многие, многие годы…

Но их любовь сильнее родовой вражды, сильнее предрассудков и непреодолимых препятствий. Великая сила этой любви побеждает все, даже смерть...

Качество: HDTVRip 720p
Формат: MKV
Видео кодек: H.264
Аудио кодек: AC3
Видео: 1280x720, 4402 Kbps, 25 fps
Аудио#1: RU: 48 kHz, AC3 Dolby Digital, 2/0 (L,R) ch, ~192.00 kbps avg (Дубляж)
Аудио#2: EN: 48 kHz, AC3 Dolby Digital, 2/0 (L,R) ch, ~192.00 kbps avg
Аудио#3: RU: 48 kHz, AC3 Dolby Digital, 2/0 (L,R) ch, ~160.00 kbps avg (Одноголосый закадровый)
скриншот   скриншот   скриншот  





General
Unique ID : 204133165407900678176455777898215596122 (0x99929E1A638FCD6CA28BCE50341D605A)
Complete name : E:\Фильмы\Ромео и Джульетта 1968.mkv
Format : Matroska
Format version : Version 2
File size : 4.67 GiB
Duration : 2h 12mn
Overall bit rate : 5 046 Kbps
Encoded date : UTC 2012-03-07 08:01:42
Writing application : mkvmerge v3.0.0 ('Hang up your Hang-Ups') built on Dec 12 2009 15:20:35
Writing library : libebml v0.7.9 + libmatroska v0.8.1

Video
ID : 1
Format : AVC
Format/Info : Advanced Video Codec
Format profile : High@L4.1
Format settings, CABAC : Yes
Format settings, ReFrames : 4 frames
Codec ID : V_MPEG4/ISO/AVC
Duration : 2h 12mn
Bit rate : 4 500 Kbps
Width : 1 280 pixels
Height : 720 pixels
Display aspect ratio : 16:9
Frame rate mode : Constant
Frame rate : 25.000 fps
Color space : YUV
Chroma subsampling : 4:2:0
Bit depth : 8 bits
Scan type : Progressive
Bits/(Pixel*Frame) : 0.195
Stream size : 4.08 GiB (87%)
Title : Romeo and Juliet
Writing library : x264 core 113 r1881kMod cd53fa4
Encoding settings : cabac=1 / ref=4 / deblock=1:-2:-2 / analyse=0x3:0x133 / me=tesa / subme=10 / psy=1 / fade_compensate=0.00 / psy_rd=1.00:0.15 / mixed_ref=1 / me_range=24 / chroma_me=1 / trellis=2 / 8x8dct=1 / cqm=0 / deadzone=21,11 / fast_pskip=0 / chroma_qp_offset=-3 / threads=1 / sliced_threads=0 / nr=0 / decimate=0 / interlaced=0 / constrained_intra=0 / bframes=4 / b_pyramid=2 / b_adapt=2 / b_bias=0 / direct=3 / weightb=1 / open_gop=0 / weightp=2 / keyint=250 / keyint_min=25 / scenecut=40 / intra_refresh=0 / rc=2pass / mbtree=0 / bitrate=4500 / ratetol=1.0 / qcomp=0.80 / qpmin=10 / qpmax=51 / qpstep=4 / cplxblur=20.0 / qblur=0.5 / ip_ratio=1.10 / pb_ratio=1.10 / aq=1:0.50
Default : Yes
Forced : No

Audio #1
ID : 2
Format : AC-3
Format/Info : Audio Coding 3
Mode extension : CM (complete main)
Format settings, Endianness : Big
Codec ID : A_AC3
Duration : 2h 12mn
Bit rate mode : Constant
Bit rate : 192 Kbps
Channel count : 2 channels
Channel positions : Front: L R
Sampling rate : 48.0 KHz
Bit depth : 16 bits
Compression mode : Lossy
Stream size : 182 MiB (4%)
Title : Дубляж
Language : Russian
Default : Yes
Forced : Yes

Audio #2
ID : 3
Format : AC-3
Format/Info : Audio Coding 3
Mode extension : CM (complete main)
Format settings, Endianness : Big
Codec ID : A_AC3
Duration : 2h 12mn
Bit rate mode : Constant
Bit rate : 192 Kbps
Channel count : 2 channels
Channel positions : Front: L R
Sampling rate : 48.0 KHz
Bit depth : 16 bits
Compression mode : Lossy
Stream size : 182 MiB (4%)
Title : En
Language : English
Default : No
Forced : No

Audio #3
ID : 4
Format : AC-3
Format/Info : Audio Coding 3
Mode extension : CM (complete main)
Format settings, Endianness : Big
Codec ID : A_AC3
Duration : 2h 12mn
Bit rate mode : Constant
Bit rate : 160 Kbps
Channel count : 2 channels
Channel positions : Front: L R
Sampling rate : 48.0 KHz
Bit depth : 16 bits
Compression mode : Lossy
Stream size : 152 MiB (3%)
Title : Kupernik
Language : Russian
Default : No
Forced : No

Text #1
ID : 5
Format : UTF-8
Codec ID : S_TEXT/UTF8
Codec ID/Info : UTF-8 Plain Text
Title : Дубляж
Language : Russian
Default : No
Forced : No

Text #2
ID : 6
Format : UTF-8
Codec ID : S_TEXT/UTF8
Codec ID/Info : UTF-8 Plain Text
Title : Ru
Language : Russian
Default : Yes
Forced : No

Text #3
ID : 7
Format : UTF-8
Codec ID : S_TEXT/UTF8
Codec ID/Info : UTF-8 Plain Text
Title : Kupernik
Language : Russian
Default : No
Forced : No

Text #4
ID : 8
Format : UTF-8
Codec ID : S_TEXT/UTF8
Codec ID/Info : UTF-8 Plain Text
Title : Pasternak
Language : Russian
Default : No
Forced : No

Text #5
ID : 9
Format : UTF-8
Codec ID : S_TEXT/UTF8
Codec ID/Info : UTF-8 Plain Text
Title : En
Language : English
Default : No
Forced : No

Menu
00:00:00.000 : ru:Начало - en:Houses Of Dignity
00:08:06.240 : ru:Часы тоски - en:Sad Hours
00:11:50.280 : ru:Желание матери - en:A Mother's Desire
00:16:16.320 : ru:Плутни королевы Мэб - en:Talk Of Dreams
00:21:53.320 : ru:Сияет красота ее в ночи - en:Beauty
00:29:28.280 : ru:От ненависти к любви - en:Love Sprung From Hate
00:37:14.480 : ru:Спокойной ночи - en:Sweet Goodnight
00:49:35.520 : ru:Согласие монаха - en:Friar Consents
00:54:39.200 : ru:Встреча с кормилицей - en:"Commend me to thy lady!"
01:02:06.680 : ru:Нетерпение - en:Impatience
01:07:59.440 : ru:Жизнь за жизнь - en:A Life For A Life
01:24:55.520 : ru:Плата за кровь - en:Price Of Blood
01:30:48.040 : ru:То жаворонок был - en:The Lark Sings
01:36:40.920 : ru:Сватовство Париса - en:So Worthy A Gentleman
01:44:09.040 : ru:Возьми вот эту склянку - en:Desperate Deception
01:50:53.560 : ru:Пью за тебя, любовь - en:Lovers' Farewell
02:07:19.160 : ru:Печальный мир - en:A Gloomy Peace
02:10:02.720 : ru:Конец - en:End Credits




Скачать Ромео и Джульетта через торрент https://pic1.kartinco.top/images/61/z4fkc.jpg Скачать, смотреть онлайн Ромео и Джульетта бесплантно в хорошем качестве Описание: На балу во дворце Капулетти зарождается любовь двух юных существ, судьбою обреченных на ненависть. Ромео Монтекки и Джульетта ... 9.8 10 6
Info! Золотая раздача, скачанное не засчитывается.
Торрент: Зарегистрирован [2014-04-07 16:51] · скачан: 10 раз
Статус: √ проверено
Размер: 4.67 GB
Как cкачать? Как скачать Ромео и Джульетта через торрент | UTorrent




Последний раз редактировалось: Caня (2014-04-07 20:11), всего редактировалось 11 раз(а)

28-11-2019 20:33  


Отключить вcю реклaмy на сайте, в т.ч. и в плеере онлайн просмотра!

07-04-2014 18:58 Ромео и Джульетта Скачать торрент  

Скриншоты не соответствуют заявленому размеру.



07-04-2014 19:18 Ромео и Джульетта Скачать торрент  

щас нормально?



07-04-2014 19:24 Ромео и Джульетта Скачать торрент  

а что это значит?
G
7.7/10
размер точки джи?)))



07-04-2014 19:25 Ромео и Джульетта Скачать торрент  

G
7.7/10
что это?



07-04-2014 19:28 Ромео и Джульетта Скачать торрент  

shurgan1980

Код:

[th]https://pic1.kartinco.top/images/61/gopdm.jpg[/th] [th]https://pic1.kartinco.top/images/61/5jpcm.jpg[/th] [th]https://pic1.kartinco.top/images/61/efkro.jpg[/th] [th]https://pic1.kartinco.top/images/61/6d8nw.jpg[/th]




07-04-2014 19:43 Ромео и Джульетта Скачать торрент  

Отличный фильм yes



07-04-2014 20:14 Ромео и Джульетта Скачать торрент  

Notturno писал(а):

Отличный фильм yes

Люто плюсую, как модно сейчас говорить



07-04-2014 20:17 Ромео и Джульетта Скачать торрент  

фильм супер



07-04-2014 20:19 Ромео и Джульетта Скачать торрент  

igorutka писал(а):

Notturno писал(а):

Отличный фильм yes

Люто плюсую, как модно сейчас говорить

люто,дико :sarcastic_blum:
а,фильм,да...,хороший))



04-12-2015 17:14 Ромео и Джульетта Скачать торрент  

Отличный фильм.



    Дорогой пользователь! Огромная просьба, поблагодарите релизера, оцените раздачу и оставьте свои комментарий, если Вы скачали Ромео и Джульетта через торрент бесплатно!!
    Комментировать посты могут только пользователи прошедшие не сложную регистрацию
    Показать сообщения:    


    Ромео и Джульетта через торрент
    Скачать бесплатно Ромео и Джульетта
    Ромео и Джульетта скачать торрент
    Ромео и Джульетта смотреть онлайн
    Cкачать фильм Ромео и Джульетта бесплатно
    Ромео и Джульетта скачать торрент в хорошем качестве
    Ромео и Джульетта смотреть онлайн бесплатно в хорошем качестве
    Вы не можете начинать темы
    Вы не можете отвечать на сообщения
    Вы не можете редактировать свои сообщения
    Вы не можете удалять свои сообщения
    Вы не можете голосовать в опросах
    Вы не можете прикреплять файлы к сообщениям
    Вы можете скачивать файлы
    Ромео и Джульетта / Romeo and Juliet [1968 г., Драма,Мелодрада, HDTVRip 720p, Дубляж] смотреть онлайн, скачать торрент picoco.icu