Доктор Стрэндж

Лицензия

Добыча

MVO

Дом дракона

1 сезон

Тор

Лицензия

Мэверик

Лицензия

Там, где раки поют

MVO

Властелин колец

1 сезон

Ultimate

pack

Рекомендуем

30

Repack

ВАЖНО

ВАЖНО

Ghostwire

RePack

jed

RePack

nioh2

RePack

RDR2

RePack

NEED FOR SPEED™ PAYBACK

RePack

скачать торрент

Кинопоиск HD

Острые козырьки 6 сезон

6 сезон

FAR CRY 6

RePack

скачать торрент

Лицензия

скачать торрент

MVO

1

1 сезон

скачать торрент

1 сезон

скачать торрент

Лицензия

  

Вий (Георгий Кропачев, Константин Ершов) [1967 г., ужасы, триллер, сказка, приключения, WEB-DLRip, Оригинал]

Вий через торрент piratbit.org

Размер: 747 MB | Добавлен: 8 лет 5 мес. назад | Торрент скачан:147 раз
Смотреть онлайн | Скачать   

10-04-2014 09:20 Вий Скачать торрент  

Вий
Год выпуска: 1967
Страна: Россия,СССР
Жанр: ужасы, триллер, сказка, приключения
Продолжительность: 01:12:00
Перевод: Оригинал
Тип релиза: Лицензия
Субтитры: Нет

Режиссер: Георгий Кропачев, Константин Ершов
Продюссер: Виталий Кривонощенко
Сценарий: Георгий Кропачев, Александр Птушко, Константин Ершов,Николай Гоголь

Премьера в мире: 27 ноября 1967



В ролях: Леонид Куравлев, Наталья Варлей, Алексей Глазырин, Николай Кутузов, Вадим Захарченко, Петр Вескляров, Владимир Сальников, Дмитрий Капка, Степан Шкурат, Георгий Сочевко

Описание: Студент-философ Хома Брут должен провести несколько ночей у гроба умершей панночки в старой церквушке в далекой деревне. Сможет ли он побороть свой страх, или ему придется столкнуться с нечистой силой?..

Качество: WEB-DLRip
Формат: AVI
Видео кодек: XviD
Аудио кодек: MP3
Видео: MPEG4, XviD, 720x536 (4:3), 25.000 fps, 1 313 Kbps (0.136 bit/pixel)
Аудио#1: MP3 , 48.0 KHz, 2 ch, 128 Kbps, CBR
Релиз от: Deadmauvlad
скриншот   скриншот   скриншот  

Код:

Общее
Полное имя : D:Рипы выкладка [Deadmauvlad]Рипы готовыеVij_1967_WEB-DLRip.747_MB.Deadmauvlad.avi
Формат : AVI
Формат/Информация : Audio Video Interleave
Размер файла : 747 Мбайт
Продолжительность : 1 ч. 12 м.
Общий поток : 1451 Кбит/сек
Название фильма : Vij_1967_WEBDLRip.747_MB.Deadmauvlad
Режиссёр : Deadmauvlad
Жанр : ужасы
Программа кодирования : VirtualDubMod 1.5.10.3 | www.virtualdub-fr.org || (build 2550/release)
Формат оригинала/Имя : Фильм
Правообладатель : Goldenshara

Видео
Идентификатор : 0
Формат : MPEG-4 Visual
Профиль формата : Advanced Simple@L5
Параметр BVOP формата : 1
Параметр QPel формата : Нет
Параметр GMC формата : Без точки перехода
Параметр матрицы формата : Выборочная
Идентификатор кодека : XVID
Идентификатор кодека/Подсказка : XviD
Продолжительность : 1 ч. 12 м.
Битрейт : 1313 Кбит/сек
Ширина : 720 пикселей
Высота : 536 пикселей
Соотношение сторон : 4:3
Частота кадров : 25,000 кадров/сек
Цветовое пространство : YUV
Субдискретизация насыщенности : 4:2:0
Битовая глубина : 8 бит
Тип развёртки : Прогрессивная
Метод сжатия : С потерями
Бит/(Пиксели*Кадры) : 0.136
Размер потока : 676 Мбайт (91%)
Библиотека кодирования : XviD 73

Аудио
Идентификатор : 1
Формат : MPEG Audio
Версия формата : Version 1
Профиль формата : Layer 3
Идентификатор кодека : 55
Идентификатор кодека/Подсказка : MP3
Продолжительность : 1 ч. 12 м.
Вид битрейта : Постоянный
Битрейт : 128 Кбит/сек
Каналы : 2 канала
Частота : 48,0 КГц
Метод сжатия : С потерями
Размер потока : 65,9 Мбайт (9%)
Выравнивание : Соединение по промежуткам
Продолжительность промежутка : 40 мс. (1,00 видеокадр)
Время предзагрузки промежутка : 504 мс.
Библиотека кодирования : LAME3.99r
Настройки программы : -m s -V 4 -q 2 -lowpass 17 -b 128





Скачать Вий через торрент http://2.firepic.org/2/images/2012-06/28/ze5xljl2ke0w.jpg Скачать, смотреть онлайн Вий бесплантно в хорошем качестве Описание: Студент-философ Хома Брут должен провести несколько ночей у гроба умершей панночки в старой церквушке в далекой деревне. Сможет ... 9 10 9
Info! Золотая раздача, скачанное не засчитывается.
Торрент: Зарегистрирован [2014-04-10 09:20] · скачан: 147 раз
Статус: √ проверено
Размер: 747 MB
Как cкачать? Как скачать Вий через торрент | UTorrent

% Раздел Тема Автор DL S | L
Фильмы (HD 720p, 1080p) (48-60 fps) [ 2.33 GB ] Вий | | 1080p 10 bit 60 FPS dd2d3 Скачать
2 | 0
Кино СССР [ 7.36 GB ] Вий | | 1080p kisa1980 Скачать
1 | 0
Кино СССР [ 4.63 GB ] Вий | | 1080p kisa1980 Скачать
1 | 0
Кино СССР [ 3.27 GB ] Вий | | 720p kisa1980 Скачать
1 | 0
Наши фильмы (HD, WEB-DL 720p, 1080p) [ 9.82 GB ] Вий | | 1080p bober100 Скачать
1 | 0
Фильмы (HD 720p, 1080p) (48-60 fps) [ 4.5 GB ] Вий | | 720p WorldSM Скачать
1 | 0
Наши фильмы (Blu-ray, BD-Remux, HDDVD) [ 19.97 GB ] Вий | | Вий (Георгий Кропачев, Константин Ершов Russian Mafia Скачать
1 | 0

28-11-2019 20:33  


Отключить вcю реклaмy на сайте, в т.ч. и в плеере онлайн просмотра!

10-04-2014 09:31 Вий Скачать торрент  

deadmauVlad, респект
скриншот  
yes :pleasantry:



10-04-2014 09:38 Вий Скачать торрент  

igorutka Спасибо



    Дорогой пользователь! Огромная просьба, поблагодарите релизера, оцените раздачу и оставьте свои комментарий, если Вы скачали Вий через торрент бесплатно!!
    Комментировать посты могут только пользователи прошедшие не сложную регистрацию
    Показать сообщения:    


    Вий через торрент
    Скачать бесплатно Вий
    Вий скачать торрент
    Вий смотреть онлайн
    Cкачать фильм Вий бесплатно
    Вий скачать торрент в хорошем качестве
    Вий смотреть онлайн бесплатно в хорошем качестве
    Вы не можете начинать темы
    Вы не можете отвечать на сообщения
    Вы не можете редактировать свои сообщения
    Вы не можете удалять свои сообщения
    Вы не можете голосовать в опросах
    Вы не можете прикреплять файлы к сообщениям
    Вы можете скачивать файлы