2 сезон

iTunes

MVO

1

2 сезон

iTunes

iTunes

1 сезон

RePack

30

Новинка

ВАЖНО

ИГРА 18+

pack

RePack

MK11
pack

Легкие деньги

RePack

jed

RePack

fifa19

RePack

RDR2

RePack

NEED FOR SPEED™ PAYBACK

4 сезон

9 сезон

Бесстыжие 9 сезон

Все сериалы

все сериалы на PB.wtf

RePack

FAR CRY 5

Anonymous, доброй ночи, мы не успеваем собрать деньги на оплату серверов за декабрь и январь, помогите нам пожалуйста в это трудное время. В качестве благодарности мы отключим Вам всю рекламу на сайте (укажите свой ник в строку Ваше имя)!

×
  
Magnet ссылка

Небесный суд (Алена Званцова) [2012 г., драма, фэнтези, WEB-DLRip, Лицензия (iTunes)] piratbit.org

Небесный суд через торрент piratbit.org

Размер: 2.06 GB | Добавлен: 6 лет 9 мес. назад | Торрент скачан:290 раз
Скачать  

10-04-2014 16:53 Небесный суд Скачать торрент  

Небесный суд
Год выпуска: 2012
Страна: Россия
Жанр: драма, фэнтези
Продолжительность: 01:33:32
Тип релиза: Лицензия (iTunes)

Режиссер: Алена Званцова

В ролях: Константин Хабенский, Михаил Пореченков, Ингеборга Дапкунайте, Анна Михалкова, Евгения Добровольская, Никита Зверев, Дмитрий Марьянов, Марина Дуксова, Юрий Ермаков, Юрий Ицков

Описание: Адвокаты Андрей и Вениамин — друзья, которых объединяет многое, но работа то и дело ставит их на разные стороны баррикад. Особенность их положения в том, что судебные процессы, в которых они участвуют, происходят не в земной жизни, а в загробной. Они — участники Небесного Суда, решающего, куда направить душу человека после смерти, в Рай или в Ад. В одно из дел неожиданно вмешиваются личные интересы Андрея: на скамью подсудимых попадает человек, сделавший предложение его вдове.

Качество: WEB-DLRip
Формат: AVI
Видео кодек: XviD
Аудио кодек: AC3
Видео: 720x400 (1.80:1), 25 fps, XviD build 50 ~2690 kbps avg, 0.37 bit/pixel
Аудио: 48 kHz, AC3 Dolby Digital, 2/0 (L,R) ch, ~448 kbps


Общее
Полное имя : D:\Nebesnyy.sud.2012.WEB-DLRip.avi
Формат : AVI
Формат/Информация : Audio Video Interleave
Профиль формата : OpenDML
Размер файла : 2,06 Гбайт
Продолжительность : 1 ч. 33 м.
Общий поток : 3146 Кбит/сек
Название фильма : Nebesnyy.sud.2012.WEB-DLRip.avi
Режиссёр : Rip by coc900
Программа кодирования : VirtualDubMod 1.5.10.3 | www.virtualdub-fr.org || (build 2550/release)

Видео
Идентификатор : 0
Формат : MPEG-4 Visual
Профиль формата : Advanced Simple@L5
Параметр BVOP формата : 2
Параметр QPel формата : Нет
Параметр GMC формата : Без точки перехода
Параметр матрицы формата : Default (H.263)
Идентификатор кодека : XVID
Идентификатор кодека/Подсказка : XviD
Продолжительность : 1 ч. 33 м.
Битрейт : 2685 Кбит/сек
Ширина : 720 пикселей
Высота : 400 пикселей
Соотношение сторон : 16:9
Частота кадров : 25,000 кадров/сек
Цветовое пространство : YUV
Субдискретизация насыщенности : 4:2:0
Битовая глубина : 8 бит
Тип развёртки : Прогрессивная
Метод сжатия : С потерями
Бит/(Пиксели*Кадры) : 0.373
Размер потока : 1,75 Гбайт (85%)
Библиотека кодирования : XviD 1.2.1 (UTC 2008-12-04)

Аудио
Идентификатор : 1
Формат : AC-3
Формат/Информация : Audio Coding 3
Расширение режима : CM (complete main)
Параметр Endianness формата : Big
Идентификатор кодека : 2000
Продолжительность : 1 ч. 33 м.
Вид битрейта : Постоянный
Битрейт : 448 Кбит/сек
Каналы : 2 канала
Расположение каналов : Front: L R
Частота : 48,0 КГц
Битовая глубина : 16 бит
Метод сжатия : С потерями
Размер потока : 300 Мбайт (14%)
Выравнивание : Разделение по промежуткам
Продолжительность промежутка : 40 мс. (1,00 видеокадр)
Время предзагрузки промежутка : 500 мс.

piratbit.org



Скачать Небесный суд через торрент http://pic.kartinco.top/images/6/fknzr.jpg Скачать фильм Небесный суд через торрент бесплантно в хорошем качестве Описание: Адвокаты Андрей и Вениамин — друзья, которых объединяет многое, но работа то и дело ставит их на разные стороны баррикад. ... 9.4 10 12
Торрент: Зарегистрирован [2014-04-10 16:53] · скачан: 290 раз
Статус: # сомнительно
Размер: 2.06 GB
Как cкачать? Как скачать Небесный суд через торрент | UTorrent

% Раздел Тема Автор DL S | L
Наши сериалы [ 2.65 GB ] Небесный суд. Продолжение / Серии 1-4 из 4 [2014 Россия SATRip) GEKADOL Скачать
1 | 0
Наши новые фильмы 2012 [ 749 MB ] Небесный суд [2012 WEB-DLRip ] Se7ven95 Скачать
1 | 0
Наши новые фильмы 2012 [ 1.45 GB ] Небесный суд [2012 Россия WEB-DLRip] Ворон Скачать
1 | 0
Наши сериалы [ 4.28 GB ] Небесный суд [2011 2012 г черная DVDRip-AVC ] Assasinca Скачать
1 | 0

28-11-2019 20:33  

Отключить всю рекламу на сайте

10-04-2014 18:09 Небесный суд Скачать торрент  

Зачем же нужно было так звук то раздувать да и релизы в AVI формате с битреем высше 2500 вроде нельзя раздавать!!!!piratbit.org



10-04-2014 18:10 Небесный суд Скачать торрент  

# сомнительно

Цитата:

AC3 Dolby Digital, 2/0 (L,R) ch, ~448 kbps

максимальный битрейт на AC3/2ch - 192kbpspiratbit.org



23-08-2014 11:58 Небесный суд Скачать торрент  

кино так себе. если бы не в ролях Хабенский и Пореченков, то даже качать не стал бы. но фильм не вывозит даже игра этих актеров.piratbit.org



31-01-2018 16:16 Небесный суд Скачать торрент  

не качается . хелпpiratbit.org



    Дорогой пользователь! Огромная просьба, поблагодарите релизера, оцените раздачу и оставьте свои комментарий, если Вы скачали Небесный суд через торрент бесплатно! Внесите свою лепту в развитие PiratBit!
    Комментировать посты могут только пользователи прошедшие не сложную регистрацию
    Показать сообщения:    

    Небесный суд через торрент
    Скачать бесплатно Небесный суд
    Небесный суд скачать торрент
    Небесный суд смотреть онлайн
    Cкачать фильм Небесный суд бесплатно
    Небесный суд скачать торрент в хорошем качестве
    Небесный суд смотреть онлайн бесплатно в хорошем качестве


    Вы не можете начинать темы
    Вы не можете отвечать на сообщения
    Вы не можете редактировать свои сообщения
    Вы не можете удалять свои сообщения
    Вы не можете голосовать в опросах
    Вы не можете прикреплять файлы к сообщениям
    Вы можете скачивать файлы