2 сезон

iTunes

MVO

1

2 сезон

iTunes

iTunes

1 сезон

RePack

30

Ultimate

ВАЖНО

ИГРА 18+

pack

RePack

MK11
pack

Легкие деньги

RePack

jed

RePack

fifa19

RePack

RDR2

RePack

NEED FOR SPEED™ PAYBACK

4 сезон

9 сезон

Бесстыжие 9 сезон

Все сериалы

все сериалы на PB.wtf

RePack

FAR CRY 5

Anonymous, доброй ночи, мы не успеваем собрать деньги на оплату серверов за декабрь и январь, помогите нам пожалуйста в это трудное время. В качестве благодарности мы отключим Вам всю рекламу на сайте (укажите свой ник в строку Ваше имя)!

×
  
Magnet ссылка

Небесный суд (Алена Званцова) [2012, Россия, драма, фэнтези, WEB-DLRip] piratbit.org

Небесный суд через торрент piratbit.org

Размер: 1.45 GB | Добавлен: 6 лет 9 мес. назад | Торрент скачан:393 раза
Скачать  

10-04-2014 20:14 Небесный суд Скачать торрент  

Небесный суд

«Идет в кино»
  • Год выпуска: 2012
  • Страна:Россия
  • Жанр:драма, фэнтези
  • Продолжительность:01:33:32
  • Перевод:Не требуется
  • Субтитры: Нет
  • Режиссер: Алена Званцова

  • В ролях:

    Константин Хабенский (Андрей), Михаил Пореченков (Вениамин Шведов), Ингеборга Дапкунайте (Морфея), Анна Михалкова, Евгения Добровольская (Анна Владимировна Боровская), Никита Зверев (Никита Лазарев), Дмитрий Марьянов («Тело»), Марина Дуксова (Надя Кулишенко), Юрий Ермаков (судебный пристав Мигель), Юрий Ицков (Август Карлович), Яна Сексте, Сергей Бызгу (Преториус)

    • Описание:
      Адвокаты Андрей и Вениамин - друзья, которых объединяет многое, но работа то и дело ставит их на разные стороны баррикад. Особенность их положения в том, что судебные процессы, в которых они участвуют, происходят не в земной жизни, а в загробной. Они - участники Небесного Суда, решающего, куда направить душу человека после смерти, в Рай или в Ад. В одно из дел неожиданно вмешиваются личные интересы Андрея: на скамью подсудимых попадает человек, сделавший предложение его вдове.


    • Качество: WEB-DLRip
    • Формат: AVI
    • Видео кодек: XviD
    • Аудио кодек:AC3
    • Видео: XviD, 704x400 (16:9), 2023 kbps, 25 fps, 0,287 bpp
    • Аудио: AC3 / 2.0 / 48 kHz / 192 kbps / 16 bit


    Код:

    General
    Complete name                            : D:\Торенты\Nebesnyi.Sud.2012.RUS.WEB-DLRip.XviD.AC3.-ENGINEER.avi
    Format                                   : AVI
    Format/Info                              : Audio Video Interleave
    File size                                : 1.45 GiB
    Duration                                 : 1h 33mn
    Overall bit rate                         : 2 225 Kbps
    Movie name                               : Небесный суд (2012)
    Director                                 : MECHANICAL ENGINEER (WEB-DL 720p)
    Writing application                      : VirtualDubMod 1.5.10.3 | www.virtualdub-fr.org || (build 2550/release)
    Comment                                  : 10.04.2014

    Video
    ID                                       : 0
    Format                                   : MPEG-4 Visual
    Format profile                           : Advanced Simple@L5
    Format settings, BVOP                    : 1
    Format settings, QPel                    : No
    Format settings, GMC                     : No warppoints
    Format settings, Matrix                  : Custom
    Codec ID                                 : XVID
    Codec ID/Hint                            : XviD
    Duration                                 : 1h 33mn
    Bit rate                                 : 2 024 Kbps
    Width                                    : 704 pixels
    Height                                   : 400 pixels
    Display aspect ratio                     : 16:9
    Frame rate                               : 25.000 fps
    Color space                              : YUV
    Chroma subsampling                       : 4:2:0
    Bit depth                                : 8 bits
    Scan type                                : Progressive
    Compression mode                         : Lossy
    Bits/(Pixel*Frame)                       : 0.287
    Stream size                              : 1.32 GiB (91%)
    Writing library                          : XviD 65

    Audio
    ID                                       : 1
    Format                                   : AC-3
    Format/Info                              : Audio Coding 3
    Mode extension                           : CM (complete main)
    Codec ID                                 : 2000
    Duration                                 : 1h 33mn
    Bit rate mode                            : Constant
    Bit rate                                 : 192 Kbps
    Channel(s)                               : 2 channels
    Channel positions                        : Front: L R
    Sampling rate                            : 48.0 KHz
    Bit depth                                : 16 bits
    Compression mode                         : Lossy
    Stream size                              : 128 MiB (9%)
    Alignment                                : Split accross interleaves
    Interleave, duration                     : 40 ms (1.00 video frame)
    Interleave, preload duration             : 500 ms

    Скриншоты:

    Каталог Новинок (Фильмы-трейлеры, Игры, Сериалы, Мультфильмы)

    © Оформление by Raven
    piratbit.org



  • Скачать Небесный суд через торрент http://pic.kartinco.top/images/6/1a7ah.jpg Скачать фильм Небесный суд через торрент бесплантно в хорошем качестве Описание:Адвокаты Андрей и Вениамин - друзья, которых объединяет многое, но работа то и дело ставит их на разные стороны баррикад. ... 10 10 12
    Торрент: Зарегистрирован [2014-04-10 20:14] · скачан: 393 раз
    Статус: √ проверено
    Размер: 1.45 GB
    Как cкачать? Как скачать Небесный суд через торрент | UTorrent

    % Раздел Тема Автор DL S | L
    # Наши новые фильмы 2012 [ 2.06 GB ] Небесный суд [2012 WEB-DLRip ()] coc900 Скачать
    1 | 0
    Наши сериалы [ 2.65 GB ] Небесный суд. Продолжение / Серии 1-4 из 4 [2014 Россия SATRip) GEKADOL Скачать
    1 | 0
    Наши новые фильмы 2012 [ 749 MB ] Небесный суд [2012 WEB-DLRip ] Se7ven95 Скачать
    1 | 0
    Наши сериалы [ 4.28 GB ] Небесный суд [2011 2012 г черная DVDRip-AVC ] Assasinca Скачать
    1 | 0

    28-11-2019 20:33  

    Отключить всю рекламу на сайте

    18-04-2014 04:14 Небесный суд Скачать торрент  

    можно посмотреть.одноразовый.ну ничего стоит задуматься о своем поведении на земле)) piratbit.org



      Дорогой пользователь! Огромная просьба, поблагодарите релизера, оцените раздачу и оставьте свои комментарий, если Вы скачали Небесный суд через торрент бесплатно! Внесите свою лепту в развитие PiratBit!
      Комментировать посты могут только пользователи прошедшие не сложную регистрацию
      Показать сообщения:    

      Небесный суд через торрент
      Скачать бесплатно Небесный суд
      Небесный суд скачать торрент
      Небесный суд смотреть онлайн
      Cкачать фильм Небесный суд бесплатно
      Небесный суд скачать торрент в хорошем качестве
      Небесный суд смотреть онлайн бесплатно в хорошем качестве


      Вы не можете начинать темы
      Вы не можете отвечать на сообщения
      Вы не можете редактировать свои сообщения
      Вы не можете удалять свои сообщения
      Вы не можете голосовать в опросах
      Вы не можете прикреплять файлы к сообщениям
      Вы можете скачивать файлы