1 сезон

3 сезон

iTunes

1

iTunes

MVO

iTunes

13

1 сезон

RePack

30

Deluxe

pack

Лицензия

ВАЖНО

ИГРА 18+

pack

RePack

MK11

RePack

jed

RePack

fifa19

RePack

RDR2

RePack

NEED FOR SPEED™ PAYBACK

4 сезон

9 сезон

Бесстыжие 9 сезон

Все сериалы

все сериалы на PB.wtf

RePack

FAR CRY 5

Anonymous, добрый вечер, мы катастрофически не успеваем собрать деньги на оплату серверов, помогите нам пожалуйста 5,10,15р., для нас важна любая помощь . В качестве благодарности мы отключим Вам всю рекламу на сайте (укажите свой ник в строку Ваше имя)!

×
  
Magnet ссылка

Забирая жизни / Taking Lives (Ди Джей Карузо / D.J. Caruso) [2004 г., Триллер, детектив, DVDRip-AVC] [Театральная версия] DUB Лицензия piratbit.org

Забирая жизни через торрент piratbit.org

Размер: 1.46 GB | Добавлен: 7 лет 3 мес. назад | Торрент скачан:623 раза
Скачать  

11-04-2014 14:45 Забирая жизни Скачать торрент  

Забирая жизни / Taking Lives
Год выпуска: 2004
Страна: США, Австралия / Warner Bros. Pictures, Atmosphere Entertainment MM LLC, Taking Lives Pictures Inc., Village Roadshow Pictures
Жанр: Триллер, детектив
Продолжительность: 01:38:45
Перевод: Дубляж [R5]
Субтитры: Нет

Режиссер: Ди Джей Карузо / D.J. Caruso



В ролях: Анджелина Джоли, Этан Хоук, Кифер Сазерленд, Джина Роулэндс, Оливье Мартинез, Чеки Карио, Жан-Юг Англад, Пол Дано, Джастин Чэтвин, Андре Лакосте

Описание: Твое имя… твои кредитные карточки… твоя жизнь… Он заберет все сразу! Неуловимый серийный убийца в течение двадцати лет подряд присваивал себе личности своих жертв. Но скоро его ждут трудные времена. За расследование очередного убийства берется агент ФБР Иллиана Скотт.
Иллиане предстоит узнать, что движет маньяком, чтобы предугадать дальнейшие шаги изощренного преступника и «перекрыть ему кислород». Но, каким-то непостижимым образом, убийца знает об отважной агентессе гораздо больше, чем та себе представляла…

Качество: DVDRip-AVC
Формат: MKV
Видео кодек: H.264
Аудио кодек: AC3
Видео: 720x420@1024x420 (2,40:1), 25,000 fps, 1732 Кbps, 0.229 bit/pixel
Аудио: 48 kHz, AC3 Dolby Digital, 3/2 (L,C,R,l,r) + LFE ch, 384.00 kbps

Автор рипа:

Общее
Уникальный идентификатор : 216014711024112596593106845802028486171 (0xA282EB87AC2EB7C097B301D1D6CA4E1B)
Полное имя : Zabiraia.Zhyzni.2004.RUS.DVDRip.x264.potroks.mkv
Формат : Matroska
Версия формата : Version 4 / Version 2
Размер файла : 1,46 Гбайт
Продолжительность : 1 ч. 38 м.
Общий поток : 2117 Кбит/сек
Название фильма : -=POTROKS=-
Дата кодирования : UTC 2014-04-11 13:33:53
Программа кодирования : mkvmerge v5.9.0 ('On The Loose') built on Dec 15 2012 16:39:58
Библиотека кодирования : libebml v1.3.0 + libmatroska v1.4.0

Видео
Идентификатор : 1
Формат : AVC
Формат/Информация : Advanced Video Codec
Профиль формата : High@L4.1
Параметр CABAC формата : Да
Параметр ReFrames формата : 12 кадров
Идентификатор кодека : V_MPEG4/ISO/AVC
Продолжительность : 1 ч. 38 м.
Битрейт : 1732 Кбит/сек
Ширина : 720 пикселей
Высота : 420 пикселей
Соотношение сторон : 2,40:1
Режим частоты кадров : Постоянный
Частота кадров : 25,000 кадров/сек
Цветовое пространство : YUV
Субдискретизация насыщенности : 4:2:0
Битовая глубина : 8 бит
Тип развёртки : Прогрессивная
Бит/(Пиксели*Кадры) : 0.229
Размер потока : 1,17 Гбайт (80%)
Заголовок : Taking Lives
Библиотека кодирования : x264 core 130 r2273 b3065e6
Настройки программы : cabac=1 / ref=12 / deblock=1:-2:-1 / analyse=0x3:0x133 / me=umh / subme=11 / psy=1 / psy_rd=1.00:0.04 / mixed_ref=1 / me_range=32 / chroma_me=1 / trellis=2 / 8x8dct=1 / cqm=0 / deadzone=21,11 / fast_pskip=0 / chroma_qp_offset=-3 / threads=9 / lookahead_threads=6 / sliced_threads=0 / nr=0 / decimate=0 / interlaced=0 / bluray_compat=0 / constrained_intra=0 / bframes=13 / b_pyramid=2 / b_adapt=2 / b_bias=0 / direct=3 / weightb=1 / open_gop=0 / weightp=2 / keyint=250 / keyint_min=23 / scenecut=40 / intra_refresh=0 / rc_lookahead=60 / rc=2pass / mbtree=0 / bitrate=1732 / ratetol=1.0 / qcomp=0.70 / qpmin=0 / qpmax=69 / qpstep=4 / cplxblur=20.0 / qblur=0.5 / vbv_maxrate=20000 / vbv_bufsize=25000 / nal_hrd=none / ip_ratio=1.35 / pb_ratio=1.25 / aq=1:0.80
Язык : English
Default : Да
Forced : Нет

Аудио
Идентификатор : 2
Формат : AC-3
Формат/Информация : Audio Coding 3
Расширение режима : CM (complete main)
Параметр Endianness формата : Big
Идентификатор кодека : A_AC3
Продолжительность : 1 ч. 38 м.
Вид битрейта : Постоянный
Битрейт : 384 Кбит/сек
Каналы : 6 каналов
Расположение каналов : Front: L C R, Side: L R, LFE
Частота : 48,0 КГц
Битовая глубина : 16 бит
Метод сжатия : С потерями
Размер потока : 271 Мбайт (18%)
Заголовок : Dub | DD 5.1 @ 384 kbps
Язык : Russian
Default : Да
Forced : Нет

Меню
00:06:13.000 : en:(01)00:06:13:000
00:08:43.000 : en:(02)00:08:43:000
00:13:35.000 : en:(03)00:13:35:000
00:16:27.000 : en:(04)00:16:27:000
00:18:58.000 : en:(05)00:18:58:000
00:23:31.000 : en:(06)00:23:31:000
00:25:27.000 : en:(07)00:25:27:000
00:29:26.000 : en:(08)00:29:26:000
00:34:08.000 : en:(09)00:34:08:000
00:38:59.000 : en:(10)00:38:59:000
00:43:33.000 : en:(11)00:43:33:000
00:46:03.000 : en:(12)00:46:03:000
00:49:50.000 : en:(13)00:49:50:000
00:53:46.000 : en:(14)00:53:46:000
00:56:35.000 : en:(15)00:56:35:000
00:59:56.000 : en:(16)00:59:56:000
01:03:16.000 : en:(17)01:03:16:000
01:06:48.000 : en:(18)01:06:48:000
01:11:08.000 : en:(19)01:11:08:000
01:15:57.000 : en:(20)01:15:57:000
01:18:22.000 : en:(21)01:18:22:000
01:21:44.000 : en:(22)01:21:44:000
01:23:24.000 : en:(23)01:23:24:000
01:26:22.000 : en:(24)01:26:22:000
01:28:51.000 : en:(25)01:28:51:000
01:32:18.000 : en:(26)01:32:18:000
01:34:28.000 : en:(27)01:34:28:000
01:38:34.000 : en:(28)01:38:34:000

piratbit.org



Скачать Забирая жизни через торрент http://i57.fastpic.ru/big/2014/0411/ac/d8b0a3abecd6a8a7787a5a72fe5cb8ac.png Скачать фильм Забирая жизни через торрент бесплантно в хорошем качестве Описание: Твое имя… твои кредитные карточки… твоя жизнь… Он заберет все сразу! Неуловимый серийный убийца в течение двадцати лет подряд ... 10 10 6
Торрент: Зарегистрирован [2014-04-11 14:45] · скачан: 623 раз
Статус: √ проверено
Размер: 1.46 GB
Как cкачать? Как скачать Забирая жизни через торрент | UTorrent



Последний раз редактировалось: potroks (2014-04-11 14:47), всего редактировалось 1 раз

28-11-2019 20:33  

Отключить всю рекламу на сайте

11-04-2014 14:46 Забирая жизни Скачать торрент  

Театралка выходила только на DVD5, без оригинала и сабовpiratbit.org



    Дорогой пользователь! Огромная просьба, поблагодарите релизера, оцените раздачу и оставьте свои комментарий, если Вы скачали Забирая жизни через торрент бесплатно! Внесите свою лепту в развитие PiratBit!
    Комментировать посты могут только пользователи прошедшие не сложную регистрацию
    Показать сообщения:    

    Забирая жизни через торрент
    Скачать бесплатно Забирая жизни
    Забирая жизни скачать торрент
    Забирая жизни смотреть онлайн
    Cкачать фильм Забирая жизни бесплатно
    Забирая жизни скачать торрент в хорошем качестве
    Забирая жизни смотреть онлайн бесплатно в хорошем качестве


    Вы не можете начинать темы
    Вы не можете отвечать на сообщения
    Вы не можете редактировать свои сообщения
    Вы не можете удалять свои сообщения
    Вы не можете голосовать в опросах
    Вы не можете прикреплять файлы к сообщениям
    Вы можете скачивать файлы