2 сезон

iTunes

MVO

1

2 сезон

iTunes

iTunes

1 сезон

RePack

30

Новинка

ВАЖНО

ИГРА 18+

pack

RePack

MK11
pack

Легкие деньги

RePack

jed

RePack

fifa19

RePack

RDR2

RePack

NEED FOR SPEED™ PAYBACK

4 сезон

9 сезон

Бесстыжие 9 сезон

Все сериалы

все сериалы на PB.wtf

RePack

FAR CRY 5

Anonymous, доброй ночи, мы не успеваем собрать деньги на оплату серверов за декабрь и январь, помогите нам пожалуйста в это трудное время. В качестве благодарности мы отключим Вам всю рекламу на сайте (укажите свой ник в строку Ваше имя)!

×
  
Magnet ссылка

Небесный суд (Алена Званцова) [2012 г., драма, фэнтези, фантастика, приключения, WEB-DLRip, Лицензия] piratbit.org

Небесный суд через торрент piratbit.org

Размер: 749 MB | Добавлен: 6 лет 8 мес. назад | Торрент скачан:510 раз
Скачать  

26-04-2014 08:37 Небесный суд Скачать торрент  

Небесный суд
Год выпуска: 2012
Страна: Россия
Жанр: драма, фэнтези, фантастика, приключения
Продолжительность: 01:33:33
Тип релиза: Лицензия
Субтитры: Нет

Режиссер: Алена Званцова
Продюссер: Алексей Моисеев, Светлана Слитюк, Владимир Хабалов
Сценарий: Алена Званцова

Премьера в мире: 31 мая 2012, «Централ Партнершип»




В ролях: Константин Хабенский, Михаил Пореченков, Ингеборга Дапкунайте, Анна Михалкова, Евгения Добровольская, Никита Зверев, Дмитрий Марьянов, Марина Дуксова, Юрий Ермаков, Юрий Ицков

Описание: Адвокаты Андрей и Вениамин – друзья, которых объединяет многое, но работа то и дело ставит их на разные стороны баррикад. Особенность их положения в том, что судебные процессы, в которых они участвуют, происходят не в земной жизни, а в загробной. Они – участники Небесного Суда, решающего, куда направить душу человека после смерти, в Рай или в Ад. В одно из дел неожиданно вмешиваются личные интересы Андрея: на скамью подсудимых попадает человек, сделавший предложение его вдове.

Качество: WEB-DLRip
Формат: AVI
Видео кодек: XviD
Аудио кодек: MP3
Видео: 624x336 (1.86:1), 25 fps, XviD build 73 ~981 kbps avg, 0.19 bit/pixel
Аудио#1: 48 kHz, MPEG Layer 3, 2 ch, ~128.00 kbps avg
Релиз от: Deadmauvlad
скриншот   скриншот   скриншот   скриншот   скриншот   скриншот   скриншот  

Общее
Полное имя : D:\Рипы выкладка [Deadmauvlad]\Рипы готовые\Nebesnyy.sud.2012.WEB-DLRip.Deadmauvlad.RUS.avi
Формат : AVI
Формат/Информация : Audio Video Interleave
Размер файла : 749 Мбайт
Продолжительность : 1 ч. 33 м.
Общий поток : 1119 Кбит/сек
Название фильма : Небесный_суд_(2012)_WEB-DLRip.Deadmauvlad
Режиссёр : Deadmauvlad
Жанр : драма,фэнтези
Программа кодирования : VirtualDubMod 1.5.10.3 | www.virtualdub-fr.org || (build 2550/release)
Формат оригинала/Имя : Фильм
Правообладатель : Goldenshara

Видео
Идентификатор : 0
Формат : MPEG-4 Visual
Профиль формата : Advanced Simple@L5
Параметр BVOP формата : 1
Параметр QPel формата : Нет
Параметр GMC формата : Без точки перехода
Параметр матрицы формата : Выборочная
Идентификатор кодека : XVID
Идентификатор кодека/Подсказка : XviD
Продолжительность : 1 ч. 33 м.
Битрейт : 981 Кбит/сек
Ширина : 624 пикселя
Высота : 336 пикселей
Соотношение сторон : 1,85:1
Частота кадров : 25,000 кадров/сек
Цветовое пространство : YUV
Субдискретизация насыщенности : 4:2:0
Битовая глубина : 8 бит
Тип развёртки : Прогрессивная
Метод сжатия : С потерями
Бит/(Пиксели*Кадры) : 0.187
Размер потока : 657 Мбайт (88%)
Библиотека кодирования : XviD 73

Аудио
Идентификатор : 1
Формат : MPEG Audio
Версия формата : Version 1
Профиль формата : Layer 3
Идентификатор кодека : 55
Идентификатор кодека/Подсказка : MP3
Продолжительность : 1 ч. 33 м.
Вид битрейта : Постоянный
Битрейт : 128 Кбит/сек
Каналы : 2 канала
Частота : 48,0 КГц
Метод сжатия : С потерями
Размер потока : 85,6 Мбайт (11%)
Выравнивание : Соединение по промежуткам
Продолжительность промежутка : 40 мс. (1,00 видеокадр)
Время предзагрузки промежутка : 504 мс.
Библиотека кодирования : LAME3.99r
Настройки программы : -m s -V 4 -q 2 -lowpass 17 -b 128


Небесный суд скачать торрент


piratbit.org



Скачать Небесный суд через торрент http://pic.kartinco.top/images/6/9naew.jpg Скачать фильм Небесный суд через торрент бесплантно в хорошем качестве Описание: Адвокаты Андрей и Вениамин – друзья, которых объединяет многое, но работа то и дело ставит их на разные стороны баррикад. ... 8.9 10 12
Торрент: Зарегистрирован [2014-04-26 08:37] · скачан: 510 раз
Статус: √ проверено
Размер: 749 MB
Как cкачать? Как скачать Небесный суд через торрент | UTorrent

% Раздел Тема Автор DL S | L
# Наши новые фильмы 2012 [ 2.06 GB ] Небесный суд [2012 WEB-DLRip ()] coc900 Скачать
1 | 0
Наши сериалы [ 2.65 GB ] Небесный суд. Продолжение / Серии 1-4 из 4 [2014 Россия SATRip) GEKADOL Скачать
1 | 0
Наши новые фильмы 2012 [ 1.45 GB ] Небесный суд [2012 Россия WEB-DLRip] Ворон Скачать
1 | 0
Наши сериалы [ 4.28 GB ] Небесный суд [2011 2012 г черная DVDRip-AVC ] Assasinca Скачать
1 | 0

28-11-2019 20:33  

Отключить всю рекламу на сайте

27-04-2014 14:02 Небесный суд Скачать торрент  

Зачетный фильм! Хабенский на высоте!piratbit.org



    Дорогой пользователь! Огромная просьба, поблагодарите релизера, оцените раздачу и оставьте свои комментарий, если Вы скачали Небесный суд через торрент бесплатно! Внесите свою лепту в развитие PiratBit!
    Комментировать посты могут только пользователи прошедшие не сложную регистрацию
    Показать сообщения:    

    Небесный суд через торрент
    Скачать бесплатно Небесный суд
    Небесный суд скачать торрент
    Небесный суд смотреть онлайн
    Cкачать фильм Небесный суд бесплатно
    Небесный суд скачать торрент в хорошем качестве
    Небесный суд смотреть онлайн бесплатно в хорошем качестве


    Вы не можете начинать темы
    Вы не можете отвечать на сообщения
    Вы не можете редактировать свои сообщения
    Вы не можете удалять свои сообщения
    Вы не можете голосовать в опросах
    Вы не можете прикреплять файлы к сообщениям
    Вы можете скачивать файлы