Доктор Стрэндж

Лицензия

Добыча

Дубляж

Уэнсдэй

1 сезон

Тор

Дубляж

В эфире

Дубляж

Там, где раки поют

MVO

Властелин колец

1 сезон

Deluxe

pack

Рекомендуем

30

Пиратка

ВАЖНО

ВАЖНО

Ghostwire

Пиратка

jed

RePack

nioh2

RePack

RDR2

RePack

NEED FOR SPEED™ PAYBACK

RePack

скачать торрент

Кинопоиск HD

Острые козырьки 6 сезон

6 сезон

FAR CRY 6

RePack

скачать торрент

Лицензия

скачать торрент

MVO

1

1 сезон

скачать торрент

1 сезон

скачать торрент

Лицензия

  

Легенды: Гробница дракона / Legendary: Tomb of the Dragon (Эрик Стайлз)[2013,боевик, приключения, BDRip 1080p] VO

Легенды: Гробница дракона через торрент piratbit.org

Размер: 8.91 GB | Добавлен: 8 лет 2 мес. назад | Торрент скачан:42 раза
Смотреть онлайн | Скачать   

28-04-2014 20:48 Легенды: Гробница дракона Скачать торрент  

Название: Легенды: Гробница дракона
Оригинальное название: Legendary: Tomb of the Dragon
Год выхода: 2013
Жанр: боевик, приключения
Страна: Великобритания, Китай
Продолжительность: 01:32:30
Перевод: Любительский одноголосый закадровый
Субтитры: русские
Режиссер: Эрик Стайлз
В ролях: Скотт Эдкинс, Дольф Лундгрен, И Хуан, Нэйтан Ли, Джеймс Лэнс, Лидия Леонард, Гэн Лэ, Мюррей Клайв Уокер, Виктор Собчак , Том Остин
Описание:
Трэвис Престон вместе с командой ученых отправляются в Китай на поиски неизвестного науке существа, наводящего ужас на население небольшого поселка. Здесь Престону вновь предстоит встретиться с давним своим противником, Харкером, безжалостным и беспринципным охотником.


Файл
Качество: BDRip 1080p
Формат: MKV
Видео кодек: AVC
Аудио кодек:DTS
Видео: 1920x800, 2.40:1, 23.976 fps, 10.8 Mbps
Аудио 1: Russian: DTS, 1510 Kbps, 6ch, 48.0 KHz
Аудио 2: English: DTS, 1509 Kbps, 6ch, 48.0 KHz

Скачать: Сэмпл (на Гугл Диске)
General

Complete name : Legendary.Tomb.Of.The.Dragon.2013.BDRip.1080p.VO.mkv
Format : Matroska
Format version : Version 2
File size : 8.91 GiB
Duration : 1h 32mn
Overall bit rate : 13.8 Mbps
Encoded date : UTC 2014-04-27 15:03:44
Writing application : mkvmerge v5.8.0 ('No Sleep / Pillow') built on Sep 2 2012 15:37:04
Writing library : libebml v1.2.3 + libmatroska v1.3.0

Video
ID : 1
Format : AVC
Format/Info : Advanced Video Codec
Format profile : High@L4.1
Format settings, CABAC : Yes
Format settings, ReFrames : 5 frames
Codec ID : V_MPEG4/ISO/AVC
Duration : 1h 32mn
Bit rate : 10.8 Mbps
Width : 1 920 pixels
Height : 800 pixels
Display aspect ratio : 2.40:1
Frame rate mode : Constant
Frame rate : 23.976 fps
Color space : YUV
Chroma subsampling : 4:2:0
Bit depth : 8 bits
Scan type : Progressive
Bits/(Pixel*Frame) : 0.293
Stream size : 6.78 GiB (76%)
Title : Legendary 2013
Writing library : x264 core 140 r2377 1ca7bb9
Encoding settings : cabac=1 / ref=5 / deblock=1:0:0 / analyse=0x3:0x113 / me=umh / subme=7 / psy=1 / psy_rd=1.00:0.00 / mixed_ref=1 / me_range=16 / chroma_me=1 / trellis=1 / 8x8dct=1 / cqm=0 / deadzone=21,11 / fast_pskip=0 / chroma_qp_offset=-2 / threads=6 / lookahead_threads=1 / sliced_threads=0 / nr=0 / decimate=1 / interlaced=0 / bluray_compat=0 / constrained_intra=0 / bframes=3 / b_pyramid=2 / b_adapt=1 / b_bias=0 / direct=1 / weightb=1 / open_gop=0 / weightp=2 / keyint=250 / keyint_min=23 / scenecut=40 / intra_refresh=0 / rc_lookahead=40 / rc=2pass / mbtree=1 / bitrate=10791 / ratetol=1.0 / qcomp=0.60 / qpmin=0 / qpmax=69 / qpstep=4 / cplxblur=20.0 / qblur=0.5 / ip_ratio=1.40 / aq=1:1.00
Default : Yes
Forced : No

Audio #1
ID : 2
Format : DTS
Format/Info : Digital Theater Systems
Mode : 16
Format settings, Endianness : Big
Codec ID : A_DTS
Duration : 1h 32mn
Bit rate mode : Constant
Bit rate : 1 510 Kbps
Channel(s) : 6 channels
Channel positions : Front: L C R, Side: L R, LFE
Sampling rate : 48.0 KHz
Bit depth : 16 bits
Compression mode : Lossy
Stream size : 999 MiB (11%)
Title : Tatyana DTS 1510
Language : Russian
Default : Yes
Forced : No

Audio #2
ID : 3
Format : DTS
Format/Info : Digital Theater Systems
Mode : 16
Format settings, Endianness : Big
Codec ID : A_DTS
Duration : 1h 32mn
Bit rate mode : Constant
Bit rate : 1 509 Kbps
Channel(s) : 6 channels
Channel positions : Front: L C R, Side: L R, LFE
Sampling rate : 48.0 KHz
Bit depth : 24 bits
Compression mode : Lossy
Stream size : 998 MiB (11%)
Title : ENG DTS 1509
Language : English
Default : No
Forced : No

Text
ID : 4
Format : UTF-8
Codec ID : S_TEXT/UTF8
Codec ID/Info : UTF-8 Plain Text
Title : RUS
Language : Russian
Default : No
Forced : No

Menu
00:00:00.000 : :Chapter 01
00:03:37.592 : :Chapter 02
00:10:12.237 : :Chapter 03
00:15:06.030 : :Chapter 04
00:24:50.155 : :Chapter 05
00:36:36.653 : :Chapter 06
00:50:05.753 : :Chapter 07
00:58:12.447 : :Chapter 08
01:05:20.583 : :Chapter 09
01:17:34.692 : :Chapter 10
01:22:06.130 : :Chapter 11
01:25:05.309 : :Chapter 12



Скачать Легенды: Гробница дракона через торрент https://pic1.kartinco.top/images/61/3a29g.jpg Скачать, смотреть онлайн Легенды: Гробница дракона бесплантно в хорошем качестве Описание: Трэвис Престон вместе с командой ученых отправляются в на поиски неизвестного науке существа, наводящего ужас на население ... 10 10 11
Торрент: Зарегистрирован [2014-09-21 10:19] · скачан: 42 раз
Статус: √ проверено
Размер: 8.91 GB
Как cкачать? Как скачать Легенды: Гробница дракона через торрент | UTorrent




Последний раз редактировалось: Ворон (2014-09-21 10:19), всего редактировалось 2 раз(а)

28-11-2019 20:33  


Отключить вcю реклaмy на сайте, в т.ч. и в плеере онлайн просмотра!

29-04-2014 04:20 Легенды: Гробница дракона Скачать торрент  

О_О Ради Собчак точно этот фильм не стоит смотреть sarcastic Спасибо за релиз!!!!



21-09-2014 11:43 Легенды: Гробница дракона Скачать торрент  

ну почему скод эдкинс снимается в таком де.ьме а??? ну вот Неоспоримый- Юрий Бойко , вот там он ваще красава...



23-03-2015 17:45 Легенды: Гробница дракона Скачать торрент  

Загнал на флэшку ... нет звука ... потерял время !...



    Дорогой пользователь! Огромная просьба, поблагодарите релизера, оцените раздачу и оставьте свои комментарий, если Вы скачали Легенды: Гробница дракона через торрент бесплатно!!
    Комментировать посты могут только пользователи прошедшие не сложную регистрацию
    Показать сообщения:    


    Легенды: Гробница дракона через торрент
    Скачать бесплатно Легенды: Гробница дракона
    Легенды: Гробница дракона скачать торрент
    Легенды: Гробница дракона смотреть онлайн
    Cкачать фильм Легенды: Гробница дракона бесплатно
    Легенды: Гробница дракона скачать торрент в хорошем качестве
    Легенды: Гробница дракона смотреть онлайн бесплатно в хорошем качестве
    Вы не можете начинать темы
    Вы не можете отвечать на сообщения
    Вы не можете редактировать свои сообщения
    Вы не можете удалять свои сообщения
    Вы не можете голосовать в опросах
    Вы не можете прикреплять файлы к сообщениям
    Вы можете скачивать файлы
    Легенды: Гробница дракона / Legendary: Tomb of the Dragon [2013,боевик, приключения, BDRip 1080p] VO смотреть онлайн, скачать торрент picoco.icu