Ссылка на приватное зеркало нашего сайта всего за 1$. Внимание количество ограничено!!!

2 сезон

iTunes

iTunes

1

iTunes

iTunes

iTunes

WEBRip

iTunes

30
pack

Новость дня

ВАЖНО

!!Акция!!

Alien_RageХит недели

RePack

Horizon Zero Dawn

ИГРА 18+

pack

RePack

jed

!!Акция!!

Alien_Rage

RePack

fifa19

RePack

Assassins Creed: Odyssey

RePack

NEED FOR SPEED™ PAYBACK

4 сезон

9 сезон

Бесстыжие 9 сезон

Все сериалы

все сериалы на PB.wtf

RePack

FAR CRY 5
  

Маньяк-убийца / Борец-Маньяк / Рестлер-Маньяк / El Mascarado Massacre (Джесси Баже) [2006 г., ужасы, спорт, треш , драма, HDRip, Профессиональный многоголосый, Лицензия] piratbit.org

Маньяк-убийца через торрент piratbit.org

Размер: 747 MB | Добавлен: 6 лет 4 мес. назад | Торрент скачан:138 раз
Скачать  

03-05-2014 13:40 Маньяк-убийца Скачать торрент  

Маньяк-убийца / Борец-Маньяк / Рестлер-Маньяк / El Mascarado Massacre
Год выпуска: 2006
Страна: США
Жанр: ужасы, спорт, треш , драма
Продолжительность: 01:11:16
Перевод: Профессиональный многоголосый, Лицензия (C DVD 5)
Тип релиза: Лицензия

Режиссер: Джесси Баже
Продюссер: Крис Мур, Джесси Баже, Стэн Басс, ...
Сценарий: Джесси Баже

Бюджет: $850 000
Премьера в мире: 20 октября 2006, ...

зрителям, достигшим 18 лет



Описание: По пути в местечко Каба-Сан Лукас съемочная группа низкобюджетного фильма теряется и попадает в «Кровь богов», город-привидение, по которому ходят леденящие кровь легенды о безумном мексиканском бойце. Глава группы, начинающий режиссер Альфонс, решает, что гнетущая атмосфера городка идеально подойдет для съемок. Камера сфокусирована, свет выставлен.

Но, стоило режиссеру сказать «Мотор», как знаменитый безумец Лучадор, человек в маске, начинает свою собственную игру. Одного за другим, маньяк похищает, пытает и убивает членов съемочной группы. Оставшимся в живых остается только одно: победить безумца или умереть.

Доп. информация:
Американский фильм ужасов «Маньяк-убийца» снятый с поистине мексиканским колоритом. Кино погружает зрителей в мексиканские легенды, а заодно дает возможность посмотреть на злоключения группы неудачливых кинематографистов. Команда киношников во главе с режиссером Альфонсом путешествует по Мексике в поисках хорошего места для съемок. Бюджет у фильма ограничен, и поэтому съемочная группа ищет приличные натуральные декорации. В маленьком захолустном городке с настораживающим названием «Кровь богов» случается небольшая авария, и двигатель автомобиля выходит из строя. Команда вынуждена остановиться здесь на неопределенный срок. Альфонс решает, что пейзажи города идеально подходят своей мрачностью для его фильма, так что кино начинают снимать на месте. Никто из случайных гостей не воспринял всерьез местную легенду об обезумевшем бойце мексиканского рестлинга. А тем временем зловещий Эль Маскарадо оказался вполне реальной угрозой, и он не остановится, пока не сорвет «маски» со всех своих воображаемых противников. © Deadmauvlad
Качество: HDRip (исх.Luchador.Maniac.BluRay.720p.NoGrp)
Формат: AVI
Видео кодек: XviD
Аудио кодек: AC3
Видео: 720x400 (1.80:1), 25 fps, XviD build 73 ~1303 kbps avg, 0.18 bit/pixel
Аудио#1: 48 kHz, AC3 Dolby Digital, 2/0 (L,R) ch, ~128 kbps
Релиз от: Deadmauvlad
скриншот   скриншот   скриншот   скриншот  

Общее

Полное имя : D:Рипы выкладка [Deadmauvlad]Рипы готовыеМаньяк-убийца.HDRip.MVO.Deadmauvlad.avi

Формат : AVI

Формат/Информация : Audio Video Interleave

Размер файла : 747 Мбайт

Продолжительность : 1 ч. 12 м.

Общий поток : 1441 Кбит/сек

Название фильма : Борец-Маньяк.HDRip.MVO.Deadmauvlad

Режиссёр : Deadmauvlad

Жанр : Ужасы, Треш , Драма

Программа кодирования : VirtualDubMod 1.5.10.3 | www.virtualdub-fr.org || (build 2550/release)

Формат оригинала/Имя : Фильм

Правообладатель : Deadmauvlad Team's

Видео

Идентификатор : 0

Формат : MPEG-4 Visual

Профиль формата : Advanced Simple@L5

Параметр BVOP формата : 4

Параметр QPel формата : Да

Параметр GMC формата : 3 точки перехода

Параметр матрицы формата : Default (MPEG)

Идентификатор кодека : XVID

Идентификатор кодека/Подсказка : XviD

Продолжительность : 1 ч. 12 м.

Битрейт : 1304 Кбит/сек

Ширина : 720 пикселей

Высота : 400 пикселей

Соотношение сторон : 16:9

Частота кадров : 25,000 кадров/сек

Цветовое пространство : YUV

Субдискретизация насыщенности : 4:2:0

Битовая глубина : 8 бит

Тип развёртки : Прогрессивная

Метод сжатия : С потерями

Бит/(Пиксели*Кадры) : 0.181

Размер потока : 676 Мбайт (90%)

Библиотека кодирования : XviD 73

Аудио

Идентификатор : 1

Формат : AC-3

Формат/Информация : Audio Coding 3

Расширение режима : CM (complete main)

Параметр Endianness формата : Big

Идентификатор кодека : 2000

Продолжительность : 1 ч. 12 м.

Вид битрейта : Постоянный

Битрейт : 128 Кбит/сек

Каналы : 2 канала

Расположение каналов : Front: L R

Частота : 48,0 КГц

Битовая глубина : 16 бит

Метод сжатия : С потерями

Размер потока : 66,3 Мбайт (9%)

Выравнивание : Разделение по промежуткам

Продолжительность промежутка : 40 мс. (1,00 видеокадр)

Время предзагрузки промежутка : 500 мс.

piratbit.org



Скачать Маньяк-убийца через торрент http://pic.kartinco.top/images/6/cxebf.jpg Скачать фильм Маньяк-убийца через торрент бесплантно в хорошем качестве Описание: По пути в местечко Каба-Сан Лукас съемочная группа низкобюджетного фильма теряется и попадает в «Кровь богов», город-привидение, ... 8.3 10 3
Торрент: Зарегистрирован [2014-05-03 13:40] · скачан: 138 раз
Статус: √ проверено
Размер: 747 MB
Как cкачать? Как скачать Маньяк-убийца через торрент | qTorrent

28-11-2019 20:33  

Отключить всю рекламу на сайте

03-05-2014 13:47 Маньяк-убийца Скачать торрент  

завтра залью рип на 1,45 гбpiratbit.org



03-05-2014 14:02 Маньяк-убийца Скачать торрент  

Обожаю трешаки!!! Качаем!!!piratbit.org



29-11-2014 06:48 Маньяк-убийца Скачать торрент  

у я тожу качауpiratbit.org



    Дорогой пользователь! Огромная просьба, поблагодарите релизера, оцените раздачу и оставьте свои комментарий, если Вы скачали Маньяк-убийца через торрент бесплатно! Внесите свою лепту в развитие PiratBit!
    Комментировать посты могут только пользователи прошедшие не сложную регистрацию
    Показать сообщения:    

    Маньяк-убийца через торрент
    Скачать бесплатно Маньяк-убийца
    Маньяк-убийца скачать торрент
    Маньяк-убийца смотреть онлайн
    Cкачать фильм Маньяк-убийца бесплатно
    Маньяк-убийца скачать торрент в хорошем качестве
    Маньяк-убийца смотреть онлайн бесплатно в хорошем качестве


    Вы не можете начинать темы
    Вы не можете отвечать на сообщения
    Вы не можете редактировать свои сообщения
    Вы не можете удалять свои сообщения
    Вы не можете голосовать в опросах
    Вы не можете прикреплять файлы к сообщениям
    Вы можете скачивать файлы