Лицензия

MVO

1

1 сезон

Лицензия

Лицензия

13

MVO

1 сезон

Deluxe Edition

pack

Рекомендуем

30

Repack

ВАЖНО

ВАЖНО

Ghostwire

RePack

jed

RePack

fifa19

RePack

RDR2

RePack

NEED FOR SPEED™ PAYBACK

RePack

Кинопоиск HD

 Острые козырьки 6 сезон

6 сезон

FAR CRY 6

RePack

Лицензия

MVO

1

1 сезон

1 сезон

Лицензия

  

Один шанс из тысячи (Леон Кочарян) [1968 г.,боевик, приключения, военный, DVDRip]

Один шанс из тысячи через торрент piratbit.org

Размер: 1.36 GB | Добавлен: 8 лет 4 мес. назад | Торрент скачан:49 раз
Смотреть онлайн Один шанс из тысячи | Скачать   

03-05-2014 19:17 Один шанс из тысячи Скачать торрент  



Один шанс из тысячиГод выпуска: 1968
Страна: СССР Одесская киностудия
Жанр: боевик, приключения, военный
Продолжительность: 01:16:18

Режиссер: Леон Кочарян
Сценарий: Андрей Тарковский, Леон Кочарян, Артур Макаров

Премьера в мире: 29 мая 1969


В ролях: Анатолий Солоницын, Аркадий Свидерский, Александр Фадеев, Харий Швейц, Владимир Маренков, Олег Халимонов, Жанна Прохоренко, Николай Гринько, Аркадий Толбузин, Гурген Тонунц, Николай Крючков, Григорий Шпигель, Олег Савосин, Лев Поляков, Павел Винник
Описание: В 1942 году отряд разведчиков-десантников, действуя в тылу врага, прорывается из немецкого кольца. Возглавляемые капитаном Мигунько, бойцы добираются до шоссе, где захватывают легковую машину с Двигубским, агентом вражеской разведки. Капитан решает с его помощью проникнуть в разведывательный центр фашистов и ликвидировать его...
Качество: DVDRip
Видео кодек: DivX
Аудио кодек: AC3
Видео: Xvid 720x320, 25.00fps, 2 357 Kbps
Аудио: Dolby AC3, 48000Hz, stereo, 192kbps
Релиз от: mio47





General
Complete name : I:\1 1 1 1\Odin_Shans_Iz_Tysyachi_1.36_.avi
Format : AVI
Format/Info : Audio Video Interleave
File size : 1.36 GiB
Duration : 1h 16mn
Overall bit rate : 2 559 Kbps
Writing application : VirtualDubMod 1.5.10.3 | (build 2550/release)
Writing library : VirtualDubMod build 2550/release

Video
ID : 0
Format : MPEG-4 Visual
Format profile : Advanced Simple@L5
Format settings, BVOP : 2
Format settings, QPel : No
Format settings, GMC : No warppoints
Format settings, Matrix : Default (MPEG)
Codec ID : XVID
Codec ID/Hint : XviD
Duration : 1h 16mn
Bit rate : 2 357 Kbps
Width : 720 pixels
Height : 320 pixels
Display aspect ratio : 2.25:1
Frame rate : 25.000 fps
Color space : YUV
Chroma subsampling : 4:2:0
Bit depth : 8 bits
Scan type : Progressive
Compression mode : Lossy
Bits/(Pixel*Frame) : 0.409
Stream size : 1.26 GiB (92%)
Writing library : XviD 63

Audio
ID : 1
Format : AC-3
Format/Info : Audio Coding 3
Mode extension : CM (complete main)
Codec ID : 2000
Duration : 1h 16mn
Bit rate mode : Constant
Bit rate : 192 Kbps
Channel(s) : 2 channels
Channel positions : Front: L R
Sampling rate : 48.0 KHz
Bit depth : 16 bits
Compression mode : Lossy
Stream size : 105 MiB (8%)
Alignment : Split accross interleaves
Interleave, duration : 40 ms (1.00 video frame)
Interleave, preload duration : 500 ms




Скачать Один шанс из тысячи через торрент https://pic1.kartinco.top/images/61/jj18x.jpg Скачать, смотреть онлайн Один шанс из тысячи бесплантно в хорошем качестве Описание: В 1942 году отряд разведчиков-десантников, действуя в тылу врага, прорывается из немецкого кольца. Возглавляемые капитаном ... 10 10 8
Info! Золотая раздача, скачанное не засчитывается.
Торрент: Зарегистрирован [2014-05-03 19:17] · скачан: 49 раз
Статус: √ проверено
Размер: 1.36 GB
Как cкачать? Как скачать Один шанс из тысячи через торрент | UTorrent

28-11-2019 20:33  

Отключить вcю реклaмy на сайте

    Дорогой пользователь! Огромная просьба, поблагодарите релизера, оцените раздачу и оставьте свои комментарий, если Вы скачали Один шанс из тысячи через торрент бесплатно!!
    Комментировать посты могут только пользователи прошедшие не сложную регистрацию
    Показать сообщения:    


    Один шанс из тысячи через торрент
    Скачать бесплатно Один шанс из тысячи
    Один шанс из тысячи скачать торрент
    Один шанс из тысячи смотреть онлайн
    Cкачать фильм Один шанс из тысячи бесплатно
    Один шанс из тысячи скачать торрент в хорошем качестве
    Один шанс из тысячи смотреть онлайн бесплатно в хорошем качестве
    Вы не можете начинать темы
    Вы не можете отвечать на сообщения
    Вы не можете редактировать свои сообщения
    Вы не можете удалять свои сообщения
    Вы не можете голосовать в опросах
    Вы не можете прикреплять файлы к сообщениям
    Вы можете скачивать файлы