Доктор Стрэндж

Лицензия

Добыча

MVO

Дом дракона

1 сезон

Тор

Лицензия

Мэверик

Лицензия

Там, где раки поют

MVO

Властелин колец

1 сезон

Ultimate

pack

Рекомендуем

30

Repack

ВАЖНО

ВАЖНО

Ghostwire

RePack

jed

RePack

nioh2

RePack

RDR2

RePack

NEED FOR SPEED™ PAYBACK

RePack

скачать торрент

Кинопоиск HD

Острые козырьки 6 сезон

6 сезон

FAR CRY 6

RePack

скачать торрент

Лицензия

скачать торрент

MVO

1

1 сезон

скачать торрент

1 сезон

скачать торрент

Лицензия

  

Берём всё на себя (Евгений Шерстобитов) [1980 г., Боевик, ВОВ, экранизация, DVDRip-AVC]

Берём всё на себя через торрент piratbit.org

Размер: 1.15 GB | Добавлен: 8 лет 4 мес. назад | Торрент скачан:196 раз
Смотреть онлайн Берём всё на себя | Скачать   

04-05-2014 16:34 Берём всё на себя Скачать торрент  


Берём всё на себяГод выпуска: 1980
Страна: СССР Киностудия им. А.П.Довженко
Жанр: Боевик, ВОВ, экранизация
Продолжительность: 01:14:02

Режиссер: Евгений Шерстобитов
Сценарий: Евгений Шерстобитов, Борис Воробьев

Премьера в мире: 14 февраля 1981

В ролях: Владимир Никитин , Георгий Дворников , Александр Кирилин (Влас Зосимыч Шергин), Александр Чернявский , Алексей Орзак , Валерий Панарин , Виктор Степаненко , Игорь Черницкий
Описание: По повести Б.Воробьева "Прибой у Котомари". Идут последние месяцы Великой Отечественной войны. Группа моряков-спецназовцев под началом старшего лейтенанта Баландина получает секретный приказ особой важности проникнуть во вражеский тыл и уничтожить танкеры, гидросамолеты и орудийные установки, чтобы обеспечить свободную высадку нашего десанта. Для девяти бывалых смельчаков нет невозможных задач, но на выполнение приказа им даны лишь одни сутки, а что ждет диверсионную группу в логове врага, не знает даже разведка, бойцы знают: теперь они могут рассчитывать лишь на свои силы, а значит, им придется взять все на себя.
Качество: DVDRip-AVC
Формат: MKV
Видео кодек: MPEG4
Аудио кодек: AC3
Видео: MPEG4 Video (H264), 696x494 (495:247), 25.00fps, 2 000 Kbps
Аудио: Dolby AC3, 48000Hz, stereo, 224 Kbps
Релиз от: konstantin49





General
Unique ID : 187141658754252294358681514324661242138 (0x8CCA2C254564163C9E4590BCEC5E091A)
Complete name : I:\1 1 1 1\Berem.vse.na.sebja.x264.DVDRip.(AVC)-MediaClub.mkv
Format : Matroska
Format version : Version 2
File size : 1.15 GiB
Duration : 1h 14mn
Overall bit rate : 2 226 Kbps
Movie name : Релиз от MediaClub (konstantin49)
Encoded date : UTC 2013-05-07 15:03:28
Writing application : mkvmerge v5.8.0 ('No Sleep / Pillow') built on Sep 2 2012 15:37:04
Writing library : libebml v1.2.3 + libmatroska v1.3.0

Video
ID : 1
Format : AVC
Format/Info : Advanced Video Codec
Format profile : High@L4.1
Format settings, CABAC : Yes
Format settings, ReFrames : 8 frames
Codec ID : V_MPEG4/ISO/AVC
Duration : 1h 14mn
Bit rate : 2 000 Kbps
Width : 696 pixels
Height : 494 pixels
Display aspect ratio : 2.004
Frame rate : 25.000 fps
Color space : YUV
Chroma subsampling : 4:2:0
Bit depth : 8 bits
Scan type : Progressive
Bits/(Pixel*Frame) : 0.233
Stream size : 1.01 GiB (88%)
Writing library : x264 core 125 r2200 999b753
Encoding settings : cabac=1 / ref=8 / deblock=1:-2:-2 / analyse=0x3:0x113 / me=umh / subme=11 / psy=1 / psy_rd=1.00:0.15 / mixed_ref=1 / me_range=32 / chroma_me=1 / trellis=2 / 8x8dct=1 / cqm=0 / deadzone=21,11 / fast_pskip=0 / chroma_qp_offset=-3 / threads=3 / lookahead_threads=1 / sliced_threads=0 / nr=0 / decimate=0 / interlaced=0 / bluray_compat=0 / constrained_intra=0 / bframes=8 / b_pyramid=2 / b_adapt=2 / b_bias=0 / direct=3 / weightb=1 / open_gop=1 / weightp=2 / keyint=250 / keyint_min=25 / scenecut=40 / intra_refresh=0 / rc=2pass / mbtree=0 / bitrate=2000 / ratetol=1.0 / qcomp=0.60 / qpmin=0 / qpmax=69 / qpstep=4 / cplxblur=20.0 / qblur=0.5 / ip_ratio=1.40 / pb_ratio=1.30 / aq=1:1.00

Audio
ID : 2
Format : AC-3
Format/Info : Audio Coding 3
Mode extension : CM (complete main)
Codec ID : A_AC3
Duration : 1h 14mn
Bit rate mode : Constant
Bit rate : 224 Kbps
Channel(s) : 2 channels
Channel positions : Front: L R
Sampling rate : 48.0 KHz
Bit depth : 16 bits
Compression mode : Lossy
Stream size : 119 MiB (10%)




Скачать Берём всё на себя через торрент https://pic1.kartinco.top/images/61/a4k3t.jpg Скачать, смотреть онлайн Берём всё на себя бесплантно в хорошем качестве Описание: По повести Б.Воробьева "Прибой у Котомари". Идут последние месяцы Великой Отечественной войны. Группа моряков-спецназовцев под ... 9.9 10 7
Торрент: Зарегистрирован [2014-05-04 16:34] · скачан: 196 раз
Статус: √ проверено
Размер: 1.15 GB
Как cкачать? Как скачать Берём всё на себя через торрент | UTorrent

28-11-2019 20:33  

Отключить вcю реклaмy на сайте

    Дорогой пользователь! Огромная просьба, поблагодарите релизера, оцените раздачу и оставьте свои комментарий, если Вы скачали Берём всё на себя через торрент бесплатно!!
    Комментировать посты могут только пользователи прошедшие не сложную регистрацию
    Показать сообщения:    


    Берём всё на себя через торрент
    Скачать бесплатно Берём всё на себя
    Берём всё на себя скачать торрент
    Берём всё на себя смотреть онлайн
    Cкачать фильм Берём всё на себя бесплатно
    Берём всё на себя скачать торрент в хорошем качестве
    Берём всё на себя смотреть онлайн бесплатно в хорошем качестве
    Вы не можете начинать темы
    Вы не можете отвечать на сообщения
    Вы не можете редактировать свои сообщения
    Вы не можете удалять свои сообщения
    Вы не можете голосовать в опросах
    Вы не можете прикреплять файлы к сообщениям
    Вы можете скачивать файлы