1 сезон

1 сезон

iTunes

1

iTunes

Кинопоиск HD

iTunes

13

1 сезон

RePack

30

Deluxe

ВАЖНО

ИГРА 18+

pack

RePack

MK11
pack

Легкие деньги

RePack

jed

RePack

fifa19

RePack

RDR2

RePack

NEED FOR SPEED™ PAYBACK

4 сезон

9 сезон

Бесстыжие 9 сезон

Все сериалы

все сериалы на PB.wtf

RePack

FAR CRY 5
  
Magnet ссылка

Видимость гнева / The Upside of Anger (Майк Байндер / Mike Binder) [2004, США, Германия, Великобритания, драма, комедия, HDTVRip,Профессиональный (двухголосый) piratbit.org

Видимость гнева через торрент piratbit.org

Размер: 1.45 GB | Добавлен: 7 лет назад | Торрент скачан:43 раза
Скачать  

05-05-2014 17:54 Видимость гнева Скачать торрент  

Видимость гнева / The Upside of Anger
Год выпуска: 2004
Страна: США, Германия, Великобритания
Жанр: драма, комедия
Продолжительность: 01:52:13
Перевод: Профессиональный (двухголосый)
Субтитры: Нет

Режиссер: Майк Байндер / Mike Binder
В ролях: Джоан Аллен (Terry Ann Wolfmeyer), Кевин Костнер (Denny Davies), Эрика Кристенсен (Andy Wolfmeyer), Кери Рассел (Emily Wolfmeyer), Алисия Уитт (Hadley Wolfmeyer), Эван Рэйчел Вуд (Lavender «Popeye» Wolfmeyer), Майк Байндер (Adam «Shep» Goodman), Том Харпер (David Junior), Дэйн Кристенсен (Gorden Reiner), Дэниэл Уэбб (Grey Wolfmeyer), Магдалена Менвилл (Darlene), Сюзэнн Бертиш (Gina)

Описание: После неожиданного исчезновения мужа и главы семейства Тери Вольфмайер, обычная провинциальная домохозяйка, вынуждена в одиночку заботиться сразу о четырех дочках. Постепенно, для растерянной Терри единственным утешением становится алкоголь. Но однажды Терри знакомится с соседом по имени Дэнни, бывшим бейсболистом, а ныне ведущим на радио.
Терри серьезно влюбляется в своего нового друга. Он возвращает ей волю к жизни и частично заменяет дочерям Терри отца. Но девочки решают обернуть ситуацию в свою пользу. Они оказываются в трудном положении, так как с этих пор им приходится решать не только свои проблемы, но и проблемы матери. Ситуация осложняется, когда Терри обнаруживает, что привязанность ее детей к Дэнни идет в разрез с ее собственными интересами...

kinopoisk.ru: 7.203 (1322)
imdb.com: 6.90 (16 881)
MPAA: R - Лицам до 17 лет обязательно присутствие взрослого

Качество: HDTVRip
Формат: AVI
Видео кодек: XviD
Аудио кодек: AC3
Видео: XviD, 720x304 (2.35:1), 1393 kbps, 25 fps, 0,255 bpp
Аудио: AC3 / 5.1 / 48 kHz / 448 kbps / 16 bit

Релиз от: Scarabey
Эрика Кристенсен в жизни на шесть лет младше Кери Расселл, хотя в фильме исполняет роль старшей сестры. Алисия Уитт, исполняющая роль самой старшей дочери, всего на год старше Расселл.
Майк Биндер написал яркую роль главной героини специально для Джоан Аллен


General
Complete name : C:\закачки\Vidimost.gneva.2005.XviD.HDTVRip.avi
Format : AVI
Format/Info : Audio Video Interleave
File size : 1.45 GiB
Duration : 1h 52mn
Overall bit rate : 1 852 Kbps
Writing application : VirtualDubMod 1.5.10.2 (build 2540/release)
Writing library : VirtualDubMod build 2540/release

Video
ID : 0
Format : MPEG-4 Visual
Format profile : Advanced Simple@L5
Format settings, BVOP : 1
Format settings, QPel : No
Format settings, GMC : No warppoints
Format settings, Matrix : Custom
Codec ID : XVID
Codec ID/Hint : XviD
Duration : 1h 52mn
Bit rate : 1 394 Kbps
Width : 720 pixels
Height : 304 pixels
Display aspect ratio : 2.35:1
Frame rate : 25.000 fps
Color space : YUV
Chroma subsampling : 4:2:0
Bit depth : 8 bits
Scan type : Progressive
Compression mode : Lossy
Bits/(Pixel*Frame) : 0.255
Stream size : 1.09 GiB (75%)
Writing library : XviD 1.2.1 (UTC 2008-12-04)

Audio
ID : 1
Format : AC-3
Format/Info : Audio Coding 3
Mode extension : CM (complete main)
Codec ID : 2000
Duration : 1h 52mn
Bit rate mode : Constant
Bit rate : 448 Kbps
Channel(s) : 6 channels
Channel positions : Front: L C R, Side: L R, LFE
Sampling rate : 48.0 KHz
Bit depth : 16 bits
Compression mode : Lossy
Stream size : 360 MiB (24%)
Alignment : Split accross interleaves
Interleave, duration : 40 ms (1.00 video frame)
Interleave, preload duration : 500 ms
piratbit.org



Скачать Видимость гнева через торрент https://pic1.kartinco.top/images/61/h5qqh.jpg Скачать фильм Видимость гнева через торрент бесплантно в хорошем качестве Описание: После неожиданного исчезновения мужа и главы семейства Тери Вольфмайер, обычная провинциальная домохозяйка, вынуждена в одиночку ... 10 10 3
Info! Золотая раздача, скачанное не засчитывается.
Торрент: Зарегистрирован [2014-05-05 17:54] · скачан: 43 раз
Статус: √ проверено
Размер: 1.45 GB
Как cкачать? Как скачать Видимость гнева через торрент | UTorrent

% Раздел Тема Автор DL S | L
Фильмы 2001-2005 [ 2.88 GB ] Видимость гнева / The Upside of Anger [2005 BDRip-AVC + Авторский ] от ExKinoRay dumbia Скачать
1 | 0

28-11-2019 20:33  

Отключить всю рекламу на сайте

    Дорогой пользователь! Огромная просьба, поблагодарите релизера, оцените раздачу и оставьте свои комментарий, если Вы скачали Видимость гнева через торрент бесплатно! Внесите свою лепту в развитие PiratBit!
    Комментировать посты могут только пользователи прошедшие не сложную регистрацию
    Показать сообщения:    

    Видимость гнева через торрент
    Скачать бесплатно Видимость гнева
    Видимость гнева скачать торрент
    Видимость гнева смотреть онлайн
    Cкачать фильм Видимость гнева бесплатно
    Видимость гнева скачать торрент в хорошем качестве
    Видимость гнева смотреть онлайн бесплатно в хорошем качестве


    Вы не можете начинать темы
    Вы не можете отвечать на сообщения
    Вы не можете редактировать свои сообщения
    Вы не можете удалять свои сообщения
    Вы не можете голосовать в опросах
    Вы не можете прикреплять файлы к сообщениям
    Вы можете скачивать файлы