Доктор Стрэндж

Лицензия

Добыча

MVO

Дом дракона

1 сезон

Тор

Лицензия

Мэверик

Лицензия

Там, где раки поют

MVO

Властелин колец

1 сезон

Ultimate

pack

Рекомендуем

30

Repack

ВАЖНО

ВАЖНО

Ghostwire

RePack

jed

RePack

nioh2

RePack

RDR2

RePack

NEED FOR SPEED™ PAYBACK

RePack

скачать торрент

Кинопоиск HD

Острые козырьки 6 сезон

6 сезон

FAR CRY 6

RePack

скачать торрент

Лицензия

скачать торрент

MVO

1

1 сезон

скачать торрент

1 сезон

скачать торрент

Лицензия

  

В двух шагах от "Рая" (Тимур Золоев) [1984 г., Драма, военный, исторический, экранизация, DVDRip]

В двух шагах от "Рая" через торрент piratbit.org

Размер: 1.25 GB | Добавлен: 8 лет 4 мес. назад | Торрент скачан:47 раз
Смотреть онлайн В двух шагах от "Рая" | Скачать   

05-05-2014 18:20 В двух шагах от "Рая" Скачать торрент  

В двух шагах от "Рая"
Год выпуска: 1984
Страна: СССР Одесская киностудия
Жанр: Драма, военный, исторический, экранизация
Продолжительность: 01:21:26

Режиссер: Тимур Золоев
Сценарий: Георгий Садовников, Сергей Наумов

Премьера в мире: 6 мая 1985

В ролях: Ремигиюс Сабулис, Мартиньш Вилсонс, Алексей Булдаков, Виктор Евграфов, Роланд Загорскис, Мухтарбек Кантемиров, Ирина Мельник, Валентинас Масальскис, Любомирас Лауцявичюс, Николай Олейник
Описание: Фильм по мотивам повести С.Наумова. 1944 год. Советским разведчикам поручено обнаружить и уничтожить стратегически важный объект врага - склад урановой руды в Карпатах, закодированный гитлеровцами под названием "Рай". Он тщательно охраняется войсками специального назначения и альпийскими стрелками. Три группы советских разведчиков не вернулись с задания. И только четвертой группе под командованием Долгинцева ценой невероятных усилий удалось нейтрализовать планы врага.

Качество: DVDRip
Формат: AVI
Видео кодек: XviD
Аудио кодек: AC3
Видео: Xvid 720x544, 25.00fps, 1 998 Kbps
Аудио: Dolby AC3, 48000Hz, stereo, 192kbps
Релиз от: Сталин1879





Complete name : I:\01 01 01\V.dvuch.shagach.ot.Raya.1984.XviD.DVDRip.avi
Format : AVI
Format/Info : Audio Video Interleave
File size : 1.25 GiB
Duration : 1h 21mn
Overall bit rate : 2 197 Kbps
Writing application : VirtualDubMod 1.5.4.1 (build 2178/release)
Writing library : VirtualDubMod build 2178/release

Video
ID : 0
Format : MPEG-4 Visual
Format profile : Simple@L3
Format settings, BVOP : 1
Format settings, QPel : No
Format settings, GMC : No warppoints
Format settings, Matrix : Custom
Codec ID : XVID
Codec ID/Hint : XviD
Duration : 1h 21mn
Bit rate : 1 998 Kbps
Width : 720 pixels
Height : 544 pixels
Display aspect ratio : 4:3
Frame rate : 25.000 fps
Color space : YUV
Chroma subsampling : 4:2:0
Bit depth : 8 bits
Scan type : Progressive
Compression mode : Lossy
Bits/(Pixel*Frame) : 0.204
Stream size : 1.14 GiB (91%)
Writing library : XviD 1.0.1 (UTC 2004-06-05)

Audio
ID : 1
Format : AC-3
Format/Info : Audio Coding 3
Mode extension : CM (complete main)
Codec ID : 2000
Duration : 1h 21mn
Bit rate mode : Constant
Bit rate : 192 Kbps
Channel(s) : 2 channels
Channel positions : Front: L R
Sampling rate : 48.0 KHz
Bit depth : 16 bits
Compression mode : Lossy
Stream size : 112 MiB (9%)
Alignment : Split accross interleaves
Interleave, duration : 96 ms (2.40 video frames)
Interleave, preload duration : 96 ms




Скачать В двух шагах от "Рая" через торрент https://pic1.kartinco.top/images/61/1mujz.jpg Скачать, смотреть онлайн В двух шагах от "Рая" бесплантно в хорошем качестве Описание: Фильм по мотивам повести С.Наумова. 1944 год. Советским разведчикам поручено обнаружить и уничтожить стратегически важный объект ... 10 10 6
Info! Золотая раздача, скачанное не засчитывается.
Торрент: Зарегистрирован [2014-05-05 18:20] · скачан: 47 раз
Статус: √ проверено
Размер: 1.25 GB
Как cкачать? Как скачать В двух шагах от "Рая" через торрент | UTorrent

28-11-2019 20:33  

Отключить вcю реклaмy на сайте

    Дорогой пользователь! Огромная просьба, поблагодарите релизера, оцените раздачу и оставьте свои комментарий, если Вы скачали В двух шагах от "Рая" через торрент бесплатно!!
    Комментировать посты могут только пользователи прошедшие не сложную регистрацию
    Показать сообщения:    


    В двух шагах от "Рая" через торрент
    Скачать бесплатно В двух шагах от "Рая"
    В двух шагах от "Рая" скачать торрент
    В двух шагах от "Рая" смотреть онлайн
    Cкачать фильм В двух шагах от "Рая" бесплатно
    В двух шагах от "Рая" скачать торрент в хорошем качестве
    В двух шагах от "Рая" смотреть онлайн бесплатно в хорошем качестве
    Вы не можете начинать темы
    Вы не можете отвечать на сообщения
    Вы не можете редактировать свои сообщения
    Вы не можете удалять свои сообщения
    Вы не можете голосовать в опросах
    Вы не можете прикреплять файлы к сообщениям
    Вы можете скачивать файлы