Доктор Стрэндж

Лицензия

Добыча

MVO

Дом дракона

1 сезон

Тор

Лицензия

Мэверик

Лицензия

Там, где раки поют

MVO

Властелин колец

1 сезон

Ultimate

pack

Рекомендуем

30

Repack

ВАЖНО

ВАЖНО

Ghostwire

RePack

jed

RePack

nioh2

RePack

RDR2

RePack

NEED FOR SPEED™ PAYBACK

RePack

скачать торрент

Кинопоиск HD

Острые козырьки 6 сезон

6 сезон

FAR CRY 6

RePack

скачать торрент

Лицензия

скачать торрент

MVO

1

1 сезон

скачать торрент

1 сезон

скачать торрент

Лицензия

  

Дикий ветер (Валериу Жереги, Александр Петкович) [1985 г., Драма, детектив, DVDRip]

Дикий ветер через торрент piratbit.org

Размер: 1.37 GB | Добавлен: 8 лет 4 мес. назад | Торрент скачан:7 раз
Смотреть онлайн | Скачать   

06-05-2014 19:40 Дикий ветер Скачать торрент  

Дикий ветер
Год выпуска: 1985
Страна: СССР, Югославия Филм-Данас, Молдова-фильм, Sovin Film
Жанр: Драма, детектив
Продолжительность: 01:35:52

Режиссер: Валериу Жереги, Александр Петкович
Сценарий: Игорь Болгарин, Живоин Павлович, Виктор Смирнов

Премьера в мире: 30 января 1986

В ролях: Милан Пузич, Светозар Цветкович, Виктор Проскурин, Душан Яничиевич, Миролюб Лешо, Любовь Полищук, Светлана Тома, Евгения Симонова, Елена Кондулайнен, Сильвия Берова, Джордж Монтгомери, Роберт Дейл Камингс, Бронислав Лечич, Владлан Живкович, Младен Неделькович, Дейл Каммингс, Драгомир Фелба...

Описание: 1941 г. Югославия. Из фашистского плена совершает побег советский офицер Николай. Он попадает в партизанский отряд, который громит фашистов и националистов всех мастей.
Фильм на примере одной сербской семьи показывает всю жестокость и беспощадность войны, где сын вынужден идти против отца, но на войне, как нигде проявляются истинные человеческие ценности, когда любовь оказывается сильнее металла и огня…
: Примечание: Нет перевода: 00:36:59 - 00:37:12, и 00:41:17 - 00:41:24 (в Русской версии, эти фрагменты были вырезаны)
Качество: DVDRip
Формат: AVI
Видео кодек: XviD
Аудио кодек: AC3
Видео: Xvid 688x432, 25.00fps, 1 839 Kbps
Аудио: Dolby AC3, 48000Hz, stereo, 192kbps
Релиз от: Stepa56





General
Complete name : I:\1 1 1 1\Dikiy.veter.1985.nnm.XviD.avi
Format : AVI
Format/Info : Audio Video Interleave
File size : 1.37 GiB
Duration : 1h 35mn
Overall bit rate : 2 040 Kbps
Writing application : VirtualDubMod 1.5.10.2 (build 2540/release)
Writing library : VirtualDubMod build 2540/release

Video
ID : 0
Format : MPEG-4 Visual
Format profile : Advanced Simple@L5
Format settings, BVOP : 2
Format settings, QPel : No
Format settings, GMC : No warppoints
Format settings, Matrix : Default (MPEG)
Codec ID : XVID
Codec ID/Hint : XviD
Duration : 1h 35mn
Bit rate : 1 839 Kbps
Width : 688 pixels
Height : 432 pixels
Display aspect ratio : 1.593
Frame rate : 25.000 fps
Color space : YUV
Chroma subsampling : 4:2:0
Bit depth : 8 bits
Scan type : Progressive
Compression mode : Lossy
Bits/(Pixel*Frame) : 0.247
Stream size : 1.23 GiB (90%)
Writing library : XviD 1.2.1 (UTC 2008-12-04)

Audio
ID : 1
Format : AC-3
Format/Info : Audio Coding 3
Mode extension : CM (complete main)
Codec ID : 2000
Duration : 1h 35mn
Bit rate mode : Constant
Bit rate : 192 Kbps
Channel(s) : 2 channels
Channel positions : Front: L R
Sampling rate : 48.0 KHz
Bit depth : 16 bits
Compression mode : Lossy
Stream size : 132 MiB (9%)
Alignment : Split accross interleaves
Interleave, duration : 40 ms (1.00 video frame)
Interleave, preload duration : 500 ms




Скачать Дикий ветер через торрент https://pic1.kartinco.top/images/61/hwgff.jpg Скачать, смотреть онлайн Дикий ветер бесплантно в хорошем качестве Описание: 1941 г. Югославия. Из фашистского плена совершает побег советский офицер Николай. Он попадает в партизанский отряд, который ... 9.8 10 5
Info! Золотая раздача, скачанное не засчитывается.
Торрент: Зарегистрирован [2014-05-06 19:40] · скачан: 7 раз
Статус: √ проверено
Размер: 1.37 GB
Как cкачать? Как скачать Дикий ветер через торрент | UTorrent

28-11-2019 20:33  


Отключить вcю реклaмy на сайте, в т.ч. и в плеере онлайн просмотра!

    Дорогой пользователь! Огромная просьба, поблагодарите релизера, оцените раздачу и оставьте свои комментарий, если Вы скачали Дикий ветер через торрент бесплатно!!
    Комментировать посты могут только пользователи прошедшие не сложную регистрацию
    Показать сообщения:    


    Дикий ветер через торрент
    Скачать бесплатно Дикий ветер
    Дикий ветер скачать торрент
    Дикий ветер смотреть онлайн
    Cкачать фильм Дикий ветер бесплатно
    Дикий ветер скачать торрент в хорошем качестве
    Дикий ветер смотреть онлайн бесплатно в хорошем качестве
    Вы не можете начинать темы
    Вы не можете отвечать на сообщения
    Вы не можете редактировать свои сообщения
    Вы не можете удалять свои сообщения
    Вы не можете голосовать в опросах
    Вы не можете прикреплять файлы к сообщениям
    Вы можете скачивать файлы