Ссылка на приватное зеркало нашего сайта всего за 1$. Внимание количество ограничено!!!

2 сезон

iTunes

iTunes

1

iTunes

iTunes

iTunes

WEBRip

iTunes

30
pack

Забери бонус

ВАЖНО

!!Акция!!

Alien_RageХит недели

RePack

RESIDENT EVIL 3: NEMESIS REMAKE

ИГРА 18+

pack

RePack

jed

!!Акция!!

Alien_Rage

RePack

fifa19

RePack

Assassins Creed: Odyssey

RePack

NEED FOR SPEED™ PAYBACK

4 сезон

9 сезон

Бесстыжие 9 сезон

Все сериалы

все сериалы на PB.wtf

RePack

FAR CRY 5
  

Третье измерение ада / Дьявольский стул / The Devil's Chair (Адам Мэйсон) [2006 г., Ужасы, Триллер, Фантастика, WEB-DLRip, Профессиональный многоголосый, Лицензия] piratbit.org

Третье измерение ада через торрент piratbit.org

Размер: 1.46 GB | Добавлен: 6 лет 4 мес. назад | Торрент скачан:254 раза
Скачать  

11-05-2014 18:04 Третье измерение ада Скачать торрент  

Третье измерение ада / Дьявольский стул / The Devil's Chair
Год выпуска: 2006
Страна: США
Жанр: Ужасы, Триллер, Фантастика
Продолжительность: 01:30:45
Перевод: Профессиональный многоголосый, Лицензия
Тип релиза: Лицензия
Субтитры: нет

Режиссер: Адам Мэйсон
Продюссер: Надя Брэнд, Эрик М. Брейман, Патрик Эвальд, ...
Сценарий: Саймон Бойес, Адам Мэйсон

Премьера в мире: 12 сентября 2007 Канада Международный кинофестиваль в Торонто

зрителям, достигшим 18 лет


В ролях: Андрю Ховард, Полли Браун, Оливия Хилл, Надя Брэнд, Эрик М. Брейман, Гари Маккэй, Дэвид ГантЮ, Луиз Гриффитс, Мэтт Берри

Описание: Праздношатающийся наркодиллер Ник Уэст приглашает свою подружку Сэмми провести время «под кайфом» в заброшенном доме. Исследуя помещение, они натыкаются на странное устройство — нечто среднее между электрическим стулом и садистской машиной идолопоклонников — которое превращает их наркотическую эйфорию в предсмертную агонию. Механизм! Липкая жижа бордового цвета с сладковатым запахом повсюду!

Качество: WEB-DLRip
Формат: AVI
Видео кодек: XviD
Аудио кодек: AC3
Видео: 720x400 (1.80:1), 23.976 fps, XviD build 73 ~1902 kbps avg, 0.28 bit/pixel
Аудио#1: 48 kHz, AC3 Dolby Digital, 3/2 (L,C,R,l,r) + LFE ch, ~384.00 kbps avg
Релиз от: Deadmauvlad
скриншот   скриншот   скриншот   скриншот   скриншот  

http://pb.wtf/topic/18534/
1) тем что мой релиз длиннее на 3 мин (с копейками)
2) сравнение скриншотов http://screenshotcomparison.com/comparison/74238

Общее
Полное имя : D:\Рипы выкладка [Deadmauvlad]\Рипы готовые\The.Devil's.Chair.2007.WEB-DLRip.MVO.Deadmauvlad.avi
Формат : AVI
Формат/Информация : Audio Video Interleave
Размер файла : 1,46 Гбайт
Продолжительность : 1 ч. 30 м.
Общий поток : 2295 Кбит/сек
Название фильма : The.Devil's.Chair.2007.WEB-DLRip.Rus.Deadmauvlad
Режиссёр : Deadmauvlad
Жанр : Ужасы, Триллер
Программа кодирования : VirtualDubMod 1.5.10.3 | www.virtualdub-fr.org || (build 2550/release)
Формат оригинала/Имя : Фильм
Правообладатель : Goldenshara
Примечание : Лицензия

Видео
Идентификатор : 0
Формат : MPEG-4 Visual
Профиль формата : Advanced Simple@L5
Параметр BVOP формата : 1
Параметр QPel формата : Нет
Параметр GMC формата : Без точки перехода
Параметр матрицы формата : Выборочная
Идентификатор кодека : XVID
Идентификатор кодека/Подсказка : XviD
Продолжительность : 1 ч. 30 м.
Битрейт : 1902 Кбит/сек
Ширина : 720 пикселей
Высота : 400 пикселей
Соотношение сторон : 16:9
Частота кадров : 23,976 кадра/сек
Цветовое пространство : YUV
Субдискретизация насыщенности : 4:2:0
Битовая глубина : 8 бит
Тип развёртки : Прогрессивная
Метод сжатия : С потерями
Бит/(Пиксели*Кадры) : 0.275
Размер потока : 1,21 Гбайт (83%)
Библиотека кодирования : XviD 73

Аудио
Идентификатор : 1
Формат : AC-3
Формат/Информация : Audio Coding 3
Расширение режима : CM (complete main)
Параметр Endianness формата : Big
Идентификатор кодека : 2000
Продолжительность : 1 ч. 30 м.
Вид битрейта : Постоянный
Битрейт : 384 Кбит/сек
Каналы : 6 каналов
Расположение каналов : Front: L C R, Side: L R, LFE
Частота : 48,0 КГц
Битовая глубина : 16 бит
Метод сжатия : С потерями
Размер потока : 249 Мбайт (17%)
Выравнивание : Разделение по промежуткам
Продолжительность промежутка : 42 мс. (1,00 видеокадр)
Время предзагрузки промежутка : 500 мс.

piratbit.org



Скачать Третье измерение ада через торрент http://pic.kartinco.top/images/6/92ywr.jpg Скачать фильм Третье измерение ада через торрент бесплантно в хорошем качестве Описание: Праздношатающийся наркодиллер Ник Уэст приглашает свою подружку Сэмми провести время «под кайфом» в заброшенном доме. Исследуя ... 9.8 10 6
Торрент: Зарегистрирован [2014-05-11 18:04] · скачан: 254 раз
Статус: √ проверено
Размер: 1.46 GB
Как cкачать? Как скачать Третье измерение ада через торрент | qTorrent

28-11-2019 20:33  

Отключить всю рекламу на сайте

    Дорогой пользователь! Огромная просьба, поблагодарите релизера, оцените раздачу и оставьте свои комментарий, если Вы скачали Третье измерение ада через торрент бесплатно! Внесите свою лепту в развитие PiratBit!
    Комментировать посты могут только пользователи прошедшие не сложную регистрацию
    Показать сообщения:    

    Третье измерение ада через торрент
    Скачать бесплатно Третье измерение ада
    Третье измерение ада скачать торрент
    Третье измерение ада смотреть онлайн
    Cкачать фильм Третье измерение ада бесплатно
    Третье измерение ада скачать торрент в хорошем качестве
    Третье измерение ада смотреть онлайн бесплатно в хорошем качестве


    Вы не можете начинать темы
    Вы не можете отвечать на сообщения
    Вы не можете редактировать свои сообщения
    Вы не можете удалять свои сообщения
    Вы не можете голосовать в опросах
    Вы не можете прикреплять файлы к сообщениям
    Вы можете скачивать файлы