Доктор Стрэндж

Лицензия

Добыча

MVO

Дом дракона

1 сезон

Тор

Лицензия

Мэверик

Лицензия

Там, где раки поют

MVO

Властелин колец

1 сезон

Ultimate

pack

Рекомендуем

30

Repack

ВАЖНО

ВАЖНО

Ghostwire

RePack

jed

RePack

nioh2

RePack

RDR2

RePack

NEED FOR SPEED™ PAYBACK

RePack

скачать торрент

Кинопоиск HD

Острые козырьки 6 сезон

6 сезон

FAR CRY 6

RePack

скачать торрент

Лицензия

скачать торрент

MVO

1

1 сезон

скачать торрент

1 сезон

скачать торрент

Лицензия

  

Карнавал (Татьяна Лиознова) (2 серии из 2) [1981 г., мюзикл, комедия, DVDRip-AVC]

Карнавал через торрент piratbit.org

Размер: 2.18 GB | Добавлен: 8 лет 4 мес. назад | Торрент скачан:74 раза
Смотреть онлайн Карнавал | Скачать   

14-05-2014 09:16 Карнавал Скачать торрент  

КарнавалГод выпуска: 1981
Страна: СССР
Жанр: мюзикл, комедия
Продолжительность: 02:24:46
Субтитры: отсутствуют

Режиссер: Татьяна Лиознова
Сценарий: Татьяна Лиознова, Анна Родионова

Премьера в мире: 17 февраля 1982







В ролях: Ирина Муравьёва, Юрий Яковлев, Клара Лучко, Александр Абдулов, Вера Васильева, Алевтина Румянцева, Екатерина Жемчужная, Александр Михайлов, Лидия Смирнова, Валентина Титова, Зинаида Воркуль, Андрей Гусев, Елена Максимова, Ольга Блок-Миримская, Вячеслав Баранов, Вадим Андреев, Владимир Балашов, Владимир Смирнов, Роман Монастырский, Маргарита Жарова, Клавдия Козлёнкова




Описание: Школьница-выпускница из провинции приезжает в Москву поступать в театральный вуз. С первого раза у неё это не получается, но она остаётся в Москве, не теряя надежды поступить в следующем году. А пока она готовится к будущим экзаменам. Пытается заработать себе на жизнь то дворником, то костюмершей, то домработницей. Знакомится с разными людьми, влюбляется и разочаровывается...




Доп. информация: Фильм занял 9-е место по итогам проката 1982 года — 30,4 млн зрителей.
Лидер телевизионного рейтинга (1998, данные агентства «Телескоп») — 22,5 %.
Ирина Муравьёва за исполнение главной роли признана лучшей актрисой 1982 года по результатам опроса читателей журнала «Советский экран».
По сценарию, Нине Соломатиной 18-19 лет. Актрисе Ирине Муравьёвой, на момент съёмок, было 32 года.
Оханск - реальный город в составе современного Пермского края. Однако железной дороги и вокзала в Оханске нет, до ближайшей станции Нытва - 35 километров. Кроме того, расположен Оханск не на юге от Москвы, как говорит в фильме Жозефина Викторовна, а на востоке.
Съемки фильма в части, относящейся к родному городу героини, производились в городе Калуга (улицы: Ленина, Смоленская, вокзал Калуга-1, Калуга-2)


Качество: DVDRip-AVC
Формат: MKV
Видео кодек: AVC
Аудио кодек: AC3
Видео: AVC x264; 716x572-->763x572; 4:3; 25 fps; 1704 Kbps
Аудио: AC-3; 48 KHz; 448 Kbps; 6 ch
Автор рипа:
NewBiysk
General
Unique ID : 185882986994260892237093412142082287371 (0x8BD7C2D62AEB339084D680B1AB99E70B)
Complete name : \Карнавал.mkv
Format : Matroska
Format version : Version 2
File size : 2.18 GiB
Duration : 2h 24mn
Overall bit rate : 2 153 Kbps
Encoded date : UTC 2012-07-03 02:23:44
Writing application : mkvmerge v5.5.0 ('Healer') built on Apr 6 2012 21:43:24
Writing library : libebml v1.2.3 + libmatroska v1.3.0
Video
ID : 1
Format : AVC
Format/Info : Advanced Video Codec
Format profile : High@L3.0
Format settings, CABAC : Yes
Format settings, ReFrames : 4 frames
Muxing mode : Header stripping
Codec ID : V_MPEG4/ISO/AVC
Duration : 2h 24mn
Bit rate : 1 704 Kbps
Width : 716 pixels
Height : 572 pixels
Display aspect ratio : 4:3
Original display aspect ratio : 4:3
Frame rate : 25.000 fps
Color space : YUV
Chroma subsampling : 4:2:0
Bit depth : 8 bits
Scan type : Progressive
Bits/(Pixel*Frame) : 0.166
Stream size : 1.68 GiB (77%)
Title : AVC x264
Writing library : x264 core 120 r2164 da19765
Encoding settings : cabac=1 / ref=3 / deblock=1:0:0 / analyse=0x3:0x111 / me=hex / subme=7 / psy=1 / psy_rd=1.00:0.00 / mixed_ref=1 / me_range=16 / chroma_me=1 / trellis=1 / 8x8dct=1 / cqm=0 / deadzone=21,11 / fast_pskip=1 / chroma_qp_offset=-2 / threads=6 / sliced_threads=0 / nr=0 / decimate=1 / interlaced=0 / bluray_compat=0 / constrained_intra=0 / bframes=3 / b_pyramid=2 / b_adapt=1 / b_bias=0 / direct=1 / weightb=1 / open_gop=0 / weightp=2 / keyint=250 / keyint_min=25 / scenecut=40 / intra_refresh=0 / rc_lookahead=40 / rc=2pass / mbtree=1 / bitrate=1704 / ratetol=1.0 / qcomp=0.60 / qpmin=0 / qpmax=69 / qpstep=4 / cplxblur=20.0 / qblur=0.5 / ip_ratio=1.40 / aq=1:1.00
Language : Russian
Default : Yes
Forced : No
Audio
ID : 2
Format : AC-3
Format/Info : Audio Coding 3
Mode extension : CM (complete main)
Format settings, Endianness : Big
Muxing mode : Header stripping
Codec ID : A_AC3
Duration : 2h 24mn
Bit rate mode : Constant
Bit rate : 448 Kbps
Channel(s) : 6 channels
Channel positions : Front: L C R, Side: L R, LFE
Sampling rate : 48.0 KHz
Bit depth : 16 bits
Compression mode : Lossy
Stream size : 464 MiB (21%)
Title : AC3; 6 ch; 448 Kbps
Language : Russian
Default : Yes
Forced : No




Скачать Карнавал через торрент https://pic1.kartinco.top/images/61/k4g52.jpg Скачать, смотреть онлайн Карнавал бесплантно в хорошем качестве Описание: Школьница-выпускница из провинции приезжает в Москву поступать в театральный вуз. С первого раза у неё это не получается, но она ... 10 10 6
Info! Золотая раздача, скачанное не засчитывается.
Торрент: Зарегистрирован [2014-05-14 09:16] · скачан: 74 раз
Статус: √ проверено
Размер: 2.18 GB
Как cкачать? Как скачать Карнавал через торрент | UTorrent

28-11-2019 20:33  

Отключить вcю реклaмy на сайте

    Дорогой пользователь! Огромная просьба, поблагодарите релизера, оцените раздачу и оставьте свои комментарий, если Вы скачали Карнавал через торрент бесплатно!!
    Комментировать посты могут только пользователи прошедшие не сложную регистрацию
    Показать сообщения:    


    Карнавал через торрент
    Скачать бесплатно Карнавал
    Карнавал скачать торрент
    Карнавал смотреть онлайн
    Cкачать фильм Карнавал бесплатно
    Карнавал скачать торрент в хорошем качестве
    Карнавал смотреть онлайн бесплатно в хорошем качестве
    Вы не можете начинать темы
    Вы не можете отвечать на сообщения
    Вы не можете редактировать свои сообщения
    Вы не можете удалять свои сообщения
    Вы не можете голосовать в опросах
    Вы не можете прикреплять файлы к сообщениям
    Вы можете скачивать файлы