1 сезон

3 сезон

iTunes

1

iTunes

MVO

iTunes

13

1 сезон

RePack

30

Deluxe

pack

Лицензия

ВАЖНО

ИГРА 18+

pack

RePack

MK11

RePack

jed

RePack

fifa19

RePack

RDR2

RePack

NEED FOR SPEED™ PAYBACK

4 сезон

9 сезон

Бесстыжие 9 сезон

Все сериалы

все сериалы на PB.wtf

RePack

FAR CRY 5

Anonymous, добрый вечер, мы катастрофически не успеваем собрать деньги на оплату серверов, помогите нам пожалуйста 5,10,15р., для нас важна любая помощь . В качестве благодарности мы отключим Вам всю рекламу на сайте (укажите свой ник в строку Ваше имя)!

×
  
Magnet ссылка

Наци / Führer Ex (Винфрид Боненгель) [2002 г., драма, DVDRip-AVC, Профессиональный двухголосый] piratbit.org

Наци через торрент piratbit.org

Размер: 1.75 GB | Добавлен: 7 лет 2 мес. назад | Торрент скачан:123 раза
Скачать  

15-05-2014 10:06 Наци Скачать торрент  

Наци / Führer ExГод выпуска: 2002
Страна: Германия, Италия
Жанр: драма
Продолжительность: 01:40:22
Перевод: Профессиональный двухголосый
Субтитры: Русские

Режиссер: Винфрид Боненгель
Продюссер: Брукс Райли, Лоуренс Страуб, Клементина Хегевиш
Сценарий: Инго Хасселбах, Винфрид Боненгель, Дуглас Грэхэм

Бюджет: €5 000 000
Премьера в мире: 31 августа 2002










В ролях: Аарон Хилдебранд /Aaron Hildebrand/ Кристиан Блумел /Christian Blümel/ Марко Шульц /Marco Schulz/ Жюль Флирль /Jule Flierl/ Люси Ван Орг /Luci Van Org/ Харри Баэр /Harry Baer/ Дитер Лазер /Dieter Laser/ и другие




Описание: 1986 год. Закадычные друзья Хайко и Томми мечтают сбежать из опостылевшего им коммунистического Берлина в далекую Австралию. Попытка перехода границы приводит их за решетку. В отличие от вялого и замкнутого Хайко, опытному и смелому Томми уже знакомы суровые порядки "образцовых" тюрем ГДР, в которых заправляют неонацистские группировки. Оказавшись в настоящем аду, где выживают только стукачи и бешеные звери, Хайко спасается, заручившись дружбой местного фашистского главаря, а Томми решается на отчаянный побег... Им суждено увидеться лишь через 4 года, в Берлине, где Хайко, ставший убежденным нацистом, командует сворой бритоголовых, вышедших из подполья после падения "Стены"...
Талантливый германский кинематографист Винфрид Бонэнгель снял сенсационный и реалистичный фильм по воспоминаниям Инго Хассельбаха, бывшего главаря неонацистской группировки, наводившей ужас на Восточный Берлин в начале 90-х годов, который порвал со своим "коричневым" прошлым благодаря стараниям режиссера. (с)





Качество: DVDRip-AVC
Формат: MKV
Видео кодек: AVC
Аудио кодек: AC3
Видео: MPEG4 Video (H264) 720x576 (4:3) 25.00fps 1603 Kbps
Аудио#1: Dolby AC3 48000Hz 6ch 448 Kbps /Русский/
Аудио#2: Dolby AC3 48000Hz 6ch 448 Kbps /Немецкий/

General
Fuhrer Ex (2002)Nazi (2002) rus+ger.mkv
Format : Matroska
File size : 1.75 GiB
Duration : 1h 40mn
Overall bit rate : 2 500 Kbps
Encoded date : UTC 2009-12-09 15:16:38
Writing application : mkvmerge v2.4.1 ('Use Me') built on Dec 5 2008 15:43:32
Writing library : libebml v0.7.7 + libmatroska v0.8.1

Video
ID : 1
Format : AVC
Format/Info : Advanced Video Codec
Format profile : Main@L4.0
Format settings, CABAC : Yes
Format settings, ReFrames : 2 frames
Muxing mode : Container profile=Unknown@4.0
Codec ID : V_MPEG4/ISO/AVC
Duration : 1h 40mn
Bit rate : 1 555 Kbps
Nominal bit rate : 1 603 Kbps
Width : 720 pixels
Height : 576 pixels
Display aspect ratio : 4:3
Original display aspect ratio : 5:4
Frame rate : 25.000 fps
Standard : PAL
Resolution : 24 bits
Colorimetry : 4:2:0
Scan type : Progressive
Bits/(Pixel*Frame) : 0.150
Stream size : 1.09 GiB (62%)
Title : Fuhrer Ex (2002)
Writing library : x264 core 66 r1092 60f4cd8
Encoding settings : cabac=1 / ref=1 / deblock=0:0:0 / analyse=0x1:0x111 / me=dia / subme=2 / psy_rd=0.0:0.0 / mixed_ref=0 / me_range=8 / chroma_me=0 / trellis=0 / 8x8dct=0 / cqm=0 / deadzone=21,11 / chroma_qp_offset=0 / threads=3 / nr=0 / decimate=1 / mbaff=0 / bframes=2 / b_pyramid=0 / b_adapt=0 / b_bias=0 / direct=1 / wpredb=0 / keyint=250 / keyint_min=25 / scenecut=40(pre) / rc=cbr / bitrate=1603 / ratetol=1.0 / qcomp=0.60 / qpmin=10 / qpmax=51 / qpstep=4 / vbv_maxrate=25000 / vbv_bufsize=14000 / ip_ratio=1.40 / pb_ratio=1.30 / aq=1:1.00

Audio #1
ID : 2
Format : AC-3
Format/Info : Audio Coding 3
Codec ID : A_AC3
Duration : 1h 40mn
Bit rate mode : Constant
Bit rate : 448 Kbps
Channel(s) : 6 channels
Channel positions : Front: L C R, Surround: L R, LFE
Sampling rate : 48.0 KHz
Stream size : 322 MiB (18%)
Language : Russian

Audio #2
ID : 3
Format : AC-3
Format/Info : Audio Coding 3
Codec ID : A_AC3
Duration : 1h 40mn
Bit rate mode : Constant
Bit rate : 448 Kbps
Channel(s) : 6 channels
Channel positions : Front: L C R, Surround: L R, LFE
Sampling rate : 48.0 KHz
Stream size : 322 MiB (18%)
Language : German

Text
ID : 4
Format : VobSub
Codec ID : S_VOBSUB
Codec ID/Info : The same subtitle format used on DVDs
Language : Russian

piratbit.org



Скачать Наци через торрент https://pic1.kartinco.top/images/61/rxzbl.jpg Скачать фильм Наци через торрент бесплантно в хорошем качестве Описание: 1986 год. Закадычные друзья Хайко и Томми мечтают сбежать из опостылевшего им коммунистического Берлина в далекую Австралию. ... 10 10 9
Info! Золотая раздача, скачанное не засчитывается.
Торрент: Зарегистрирован [2014-05-15 10:06] · скачан: 123 раз
Статус: √ проверено
Размер: 1.75 GB
Как cкачать? Как скачать Наци через торрент | UTorrent

28-11-2019 20:33  

Отключить всю рекламу на сайте


    Дорогой пользователь! Огромная просьба, поблагодарите релизера, оцените раздачу и оставьте свои комментарий, если Вы скачали Наци через торрент бесплатно! Внесите свою лепту в развитие PiratBit!
    Комментировать посты могут только пользователи прошедшие не сложную регистрацию
    Показать сообщения:    

    Наци через торрент
    Скачать бесплатно Наци
    Наци скачать торрент
    Наци смотреть онлайн
    Cкачать фильм Наци бесплатно
    Наци скачать торрент в хорошем качестве
    Наци смотреть онлайн бесплатно в хорошем качестве


    Вы не можете начинать темы
    Вы не можете отвечать на сообщения
    Вы не можете редактировать свои сообщения
    Вы не можете удалять свои сообщения
    Вы не можете голосовать в опросах
    Вы не можете прикреплять файлы к сообщениям
    Вы можете скачивать файлы