Ссылка на приватное зеркало нашего сайта всего за 1$. Внимание количество ограничено!!!

2 сезон

iTunes

iTunes

1

iTunes

iTunes

iTunes

WEBRip

iTunes

30
pack

Вам бонус

ВАЖНО

!!Акция!!

Alien_RageХит недели

RePack

Horizon Zero Dawn

ИГРА 18+

pack

RePack

jed

!!Акция!!

Alien_Rage

RePack

fifa19

RePack

Assassins Creed: Odyssey

RePack

NEED FOR SPEED™ PAYBACK

4 сезон

9 сезон

Бесстыжие 9 сезон

Все сериалы

все сериалы на PB.wtf

RePack

FAR CRY 5
  

На колесах / Где Фред? / Wo ist Fred? (Анно Саул) [2006 г., мелодрама, комедия, спорт, BDRip-AVC] Dub + Original (Ger) piratbit.org

На колесах через торрент piratbit.org

Размер: 3.04 GB | Добавлен: 6 лет 4 мес. назад | Торрент скачан:69 раз
Скачать  

17-05-2014 10:16 На колесах Скачать торрент  

На колесах / Где Фред? / Wo ist Fred?

Год выпуска: 2006
Страна: Германия
Жанр: мелодрама, комедия, спорт
Продолжительность: 01:51:36
Перевод: Дубляж
Субтитры: Русские

Режиссер: Анно Саул
Продюссер: Штефан Гёртнер, Дитмар Гюнче, Эберхард Юнкерсдорф,
Сценарий: Кен Даурио, Синко Пол, Бора Дагтекин

Премьера в мире: 16 ноября 2006







В ролях: Тиль Швайгер, Александра Мария Лара, Юрген Фогель, Аня Клинг, Кристоф Мария Хербст, Таня Вензел, Рамон Джулия Кениг, Паскуале Алеарди, Дэвид Шеллер, Аделе Нойхаузер...




Описание: Чтобы угодить избалованному сынку своей возлюбленной, Фред хочет достать для мальчишки баскетбольный мяч с автографами игроков его любимой команды. Но возникает проблема: такой мяч может получить только инвалид. Фред решает на время сесть в инвалидную коляску и обманом завладеть драгоценным трофеем. Однако получая желанный мяч, Фред привлекает внимание очаровательной девушки-кинорежиссера Денис, которая хочет снять фильм о фанатах-инвалидах…




Доп. информация: из рипа (автор - jlиС) удалена аудиодорожка с комментариями к фильму на немецком языке

Качество: BDRip-AVC
Формат: MKV
Видео кодек: H.264
Аудио кодек: AC3
Видео: 1152х624 (1.85:1), 24 fps, ~2824 kbps, 0.164 b/px
Аудио#1: rus: AC3, 48.0 KHz, 6 ch., ~448 kbps
Аудио#2: ger: AC3, 48.0 KHz, 6 ch., ~448 kbps
Автор рипа:
jlиС
На.колесах.2006.BDRip-AVC.by.jlиС\На.колесах.2006.BDRip-AVC.by.jlиС.mkv
General
Unique ID : 177220043403861230251260372212529288313 (0x855356BDCE58158AA0FA91296CFCD479)
Complete name : На.колесах.2006.BDRip-AVC.by.jlиС.mkv
Format : Matroska
Format version : Version 4 / Version 2
File size : 3.04 GiB
Duration : 1h 51mn
Overall bit rate : 3 897 Kbps
Movie name : На колесах / Wo ist Fred? (2006) [BDRip-AVC by jlиС]
Encoded date : UTC 2014-05-17 09:06:47
Writing application : mkvmerge v6.8.0 ('Theme for Great Cities') 64bit built on Mar 2 2014 21:34:26
Writing library : libebml v1.3.0 + libmatroska v1.4.1
Video #1
ID : 1
Format : AVC
Format/Info : Advanced Video Codec
Format profile : High@L4.1
Format settings, CABAC : Yes
Format settings, ReFrames : 9 frames
Codec ID : V_MPEG4/ISO/AVC
Duration : 1h 51mn
Bit rate : 2 999 Kbps
Width : 1 152 pixels
Height : 624 pixels
Display aspect ratio : 1.85:1
Frame rate mode : Constant
Frame rate : 24.000 fps
Color space : YUV
Chroma subsampling : 4:2:0
Bit depth : 8 bits
Scan type : Progressive
Bits/(Pixel*Frame) : 0.174
Stream size : 2.28 GiB (75%)
Title : BDRip-AVC by jlиС
Writing library : x264 core 113 r1884 7313bb5
Encoding settings : cabac=1 / ref=9 / deblock=1:-2:-1 / analyse=0x3:0x113 / me=umh / subme=10 / psy=1 / psy_rd=1.00:0.20 / mixed_ref=1 / me_range=32 / chroma_me=1 / trellis=2 / 8x8dct=1 / cqm=0 / deadzone=21,11 / fast_pskip=1 / chroma_qp_offset=-3 / threads=3 / sliced_threads=0 / nr=0 / decimate=1 / interlaced=0 / constrained_intra=0 / bframes=8 / b_pyramid=2 / b_adapt=2 / b_bias=0 / direct=3 / weightb=1 / open_gop=0 / weightp=2 / keyint=250 / keyint_min=24 / scenecut=45 / intra_refresh=0 / rc_lookahead=40 / rc=2pass / mbtree=1 / bitrate=2999 / ratetol=1.0 / qcomp=0.65 / qpmin=0 / qpmax=69 / qpstep=4 / cplxblur=20.0 / qblur=0.5 / vbv_maxrate=50000 / vbv_bufsize=62500 / nal_hrd=none / ip_ratio=1.40 / aq=2:1.00
Default : Yes
Forced : No
Matrix coefficients : BT.709
Audio #2
ID : 2
Format : AC-3
Format/Info : Audio Coding 3
Mode extension : CM (complete main)
Format settings, Endianness : Big
Codec ID : A_AC3
Duration : 1h 51mn
Bit rate mode : Constant
Bit rate : 448 Kbps
Channel(s) : 6 channels
Channel positions : Front: L C R, Side: L R, LFE
Sampling rate : 48.0 KHz
Bit depth : 16 bits
Compression mode : Lossy
Stream size : 358 MiB (11%)
Title : Профессиональный (полное дублирование)
Language : Russian
Default : Yes
Forced : No
Audio #3
ID : 3
Format : AC-3
Format/Info : Audio Coding 3
Mode extension : CM (complete main)
Format settings, Endianness : Big
Codec ID : A_AC3
Duration : 1h 51mn
Bit rate mode : Constant
Bit rate : 448 Kbps
Channel(s) : 6 channels
Channel positions : Front: L C R, Side: L R, LFE
Sampling rate : 48.0 KHz
Bit depth : 16 bits
Compression mode : Lossy
Stream size : 358 MiB (11%)
Title : Original track
Language : German
Default : No
Forced : No
Text #4
ID : 4
Format : UTF-8
Codec ID : S_TEXT/UTF8
Codec ID/Info : UTF-8 Plain Text
Language : Russian
Default : No
Forced : No

piratbit.org



Скачать На колесах через торрент http://pic.kartinco.top/images/6/5v4ro.jpg Скачать фильм На колесах через торрент бесплантно в хорошем качестве Описание: Чтобы угодить избалованному сынку своей возлюбленной, Фред хочет достать для мальчишки баскетбольный мяч с автографами игроков ... 9.5 10 4
Info! Серебряная раздача, засчитывается только 50% скачанного.
Торрент: Зарегистрирован [2014-05-17 10:16] · скачан: 69 раз
Статус: √ проверено
Размер: 3.04 GB
Как cкачать? Как скачать На колесах через торрент | qTorrent

28-11-2019 20:33  

Отключить всю рекламу на сайте

18-05-2014 18:25 На колесах Скачать торрент  

Как комедия на вечер, вполне сойдет. Спасибо за раздачу piratbit.org



    Дорогой пользователь! Огромная просьба, поблагодарите релизера, оцените раздачу и оставьте свои комментарий, если Вы скачали На колесах через торрент бесплатно! Внесите свою лепту в развитие PiratBit!
    Комментировать посты могут только пользователи прошедшие не сложную регистрацию
    Показать сообщения:    

    На колесах через торрент
    Скачать бесплатно На колесах
    На колесах скачать торрент
    На колесах смотреть онлайн
    Cкачать фильм На колесах бесплатно
    На колесах скачать торрент в хорошем качестве
    На колесах смотреть онлайн бесплатно в хорошем качестве


    Вы не можете начинать темы
    Вы не можете отвечать на сообщения
    Вы не можете редактировать свои сообщения
    Вы не можете удалять свои сообщения
    Вы не можете голосовать в опросах
    Вы не можете прикреплять файлы к сообщениям
    Вы можете скачивать файлы