1 сезон

1 сезон

iTunes

1

КиноПоиск HD

Кинопоиск HD

iTunes

13

1 сезон

RePack

30

Deluxe

ВАЖНО

ИГРА 18+

pack

RePack

MK11
pack

Легкие деньги

RePack

jed

RePack

fifa19

RePack

RDR2

RePack

NEED FOR SPEED™ PAYBACK

4 сезон

9 сезон

Бесстыжие 9 сезон

Все сериалы

все сериалы на PB.wtf

RePack

FAR CRY 5
  
Magnet ссылка

Человек который судился с Богом / The Man Who Sued God (Марк Йоффе) [2001 г., Комедия, Драма, DVDRip, Любительский многоголосый] piratbit.org

Человек который судился с Богом через торрент piratbit.org

Размер: 1.58 GB | Добавлен: 6 лет 11 мес. назад | Торрент скачан:121 раз
Скачать  

01-06-2014 08:54 Человек который судился с Богом Скачать торрент  

Человек который судился с Богом / The Man Who Sued God
Год выпуска: 2001
Страна: Australian Film Finance Corporation (AFFC), New South Wales Film & Television Office, Showtime Australia
Жанр: Комедия, Драма
Продолжительность: 01:37:44
Перевод: Любительский многоголосый

Режиссер: Марк Йоффе
Продюссер: Бен Гэннон, Марк Джофф, Брайан Абель
Сценарий: Джон Кларк, Дон Уотсон, Джон Колли



В ролях: Билли Коннолли, Джуди Дэвис, Колин Фрилз, Уэнди Хьюз, Билль Браун, Джон Ховард

Описание: С бывшим юристом Стивеном Майерсом на рыбалке случается невероятное происшествие - во время грозы в его лодку ударяет молния! Лишившись имущества, Майерс обращается в страховую компанию, но та наотрез отказывается возмещать ущерб, ссылаясь на "силы стихии, неподвластные человеку".
И тогда Стивену ничего не остается, как подать в суд на... Бога! А местным представителям церкви придется на время забыть о делах духовных и защищать своего шефа на самом громком и скандальном в истории судебном процессе...
Эта легкая ироничная комедия, наполненная тонким юмором и множеством комичных ситуаций, заставит вас смеяться от души!

Качество: DVDRip
Формат: AVI
Видео кодек: MPEG4
Аудио кодек: AC3
Видео: 720x576 (16:9) @ 1024x576 (анаморф), 25.000 fps, AVC, ~1891 Kbps, 0.182 bits/pixel
Аудио#1: 48.0 KHz, AC3, 2 ch, 256 Kbps | ENG
Аудио#2: 48.0 KHz, AC3, 2 ch, 160 Kbps | RUS
скриншот  скриншот  скриншот  скриншот  


General
Unique ID : 214437330758924001778210362613701995547 (0xA15320ADB0CAF56C8D69B4DFE042EC1B)
Complete name : E:\Видео\Человек который судился с Богом (The Man Who Sued God) 2001.mkv
Format : Matroska
Format version : Version 4 / Version 2
File size : 1.58 GiB
Duration : 1h 37mn
Overall bit rate : 2 309 Kbps
Encoded date : UTC 2014-01-16 08:14:34
Writing application : mkvmerge v6.7.0 ('Back to the Ground') 64bit built on Jan 8 2014 15:10:52
Writing library : libebml v1.3.0 + libmatroska v1.4.1

Video
ID : 1
Format : AVC
Format/Info : Advanced Video Codec
Format profile : High@L4.1
Format settings, CABAC : Yes
Format settings, ReFrames : 16 frames
Codec ID : V_MPEG4/ISO/AVC
Duration : 1h 37mn
Bit rate : 1 891 Kbps
Width : 720 pixels
Height : 576 pixels
Display aspect ratio : 16:9
Frame rate mode : Constant
Frame rate : 25.000 fps
Standard : PAL
Color space : YUV
Chroma subsampling : 4:2:0
Bit depth : 8 bits
Scan type : Progressive
Bits/(Pixel*Frame) : 0.182
Stream size : 1.26 GiB (80%)
Writing library : x264 core 138 r2358 9e941d1
Encoding settings : cabac=1 / ref=16 / deblock=1:0:0 / analyse=0x3:0x133 / me=umh / subme=10 / psy=1 / psy_rd=1.05:0.10 / mixed_ref=1 / me_range=32 / chroma_me=1 / trellis=2 / 8x8dct=1 / cqm=0 / deadzone=21,11 / fast_pskip=0 / chroma_qp_offset=-3 / threads=8 / lookahead_threads=2 / sliced_threads=0 / nr=0 / decimate=0 / interlaced=0 / bluray_compat=0 / constrained_intra=0 / bframes=11 / b_pyramid=2 / b_adapt=2 / b_bias=0 / direct=3 / weightb=1 / open_gop=0 / weightp=2 / keyint=250 / keyint_min=25 / scenecut=40 / intra_refresh=0 / rc_lookahead=60 / rc=2pass / mbtree=0 / bitrate=1891 / ratetol=1.0 / qcomp=0.60 / qpmin=0 / qpmax=60 / qpstep=4 / cplxblur=20.0 / qblur=0.5 / vbv_maxrate=50000 / vbv_bufsize=62500 / nal_hrd=none / ip_ratio=1.40 / pb_ratio=1.30 / aq=1:1.00
Default : No
Forced : No
Matrix coefficients : BT.601

Audio #1
ID : 2
Format : AC-3
Format/Info : Audio Coding 3
Mode extension : CM (complete main)
Format settings, Endianness : Big
Codec ID : A_AC3
Duration : 1h 37mn
Bit rate mode : Constant
Bit rate : 256 Kbps
Channel count : 2 channels
Channel positions : Front: L R
Sampling rate : 48.0 KHz
Bit depth : 16 bits
Compression mode : Lossy
Stream size : 179 MiB (11%)
Language : English
Default : No
Forced : No

Audio #2
ID : 3
Format : AC-3
Format/Info : Audio Coding 3
Mode extension : CM (complete main)
Format settings, Endianness : Big
Codec ID : A_AC3
Duration : 1h 37mn
Bit rate mode : Constant
Bit rate : 160 Kbps
Channel count : 2 channels
Channel positions : Front: L R
Sampling rate : 48.0 KHz
Bit depth : 16 bits
Compression mode : Lossy
Stream size : 112 MiB (7%)
Language : Russian
Default : Yes
Forced : No

Menu
00:00:00.000 : en:Chapter 01
00:06:22.560 : en:Chapter 02
00:15:23.640 : en:Chapter 03
00:23:24.000 : en:Chapter 04
00:29:31.920 : en:Chapter 05
00:38:52.800 : en:Chapter 06
00:46:37.560 : en:Chapter 07
00:55:00.000 : en:Chapter 08
01:02:36.840 : en:Chapter 09
01:09:54.240 : en:Chapter 10
01:19:29.040 : en:Chapter 11
01:28:46.200 : en:Chapter 12

piratbit.org



Скачать Человек который судился с Богом через торрент https://pic1.kartinco.top/images/61/el8ci.jpg Скачать фильм Человек который судился с Богом через торрент бесплантно в хорошем качестве Описание: С бывшим юристом Стивеном Майерсом на рыбалке случается невероятное происшествие - во время грозы в его лодку ударяет молния! ... 10 10 9
Торрент: Зарегистрирован [2014-06-01 08:54] · скачан: 121 раз
Статус: √ проверено
Размер: 1.58 GB
Как cкачать? Как скачать Человек который судился с Богом через торрент | UTorrent

28-11-2019 20:33  

Отключить всю рекламу на сайте

    Дорогой пользователь! Огромная просьба, поблагодарите релизера, оцените раздачу и оставьте свои комментарий, если Вы скачали Человек который судился с Богом через торрент бесплатно! Внесите свою лепту в развитие PiratBit!
    Комментировать посты могут только пользователи прошедшие не сложную регистрацию
    Показать сообщения:    

    Человек который судился с Богом через торрент
    Скачать бесплатно Человек который судился с Богом
    Человек который судился с Богом скачать торрент
    Человек который судился с Богом смотреть онлайн
    Cкачать фильм Человек который судился с Богом бесплатно
    Человек который судился с Богом скачать торрент в хорошем качестве
    Человек который судился с Богом смотреть онлайн бесплатно в хорошем качестве


    Вы не можете начинать темы
    Вы не можете отвечать на сообщения
    Вы не можете редактировать свои сообщения
    Вы не можете удалять свои сообщения
    Вы не можете голосовать в опросах
    Вы не можете прикреплять файлы к сообщениям
    Вы можете скачивать файлы