1 сезон

iTunes

iTunes

1

Line

MVO

iTunes

13

1 сезон

RePack

30

Deluxe

pack

Лицензия

ВАЖНО

ИГРА 18+

pack

RePack

MK11

RePack

jed

RePack

fifa19

RePack

RDR2

RePack

NEED FOR SPEED™ PAYBACK

4 сезон

9 сезон

Бесстыжие 9 сезон

Все сериалы

все сериалы на PB.wtf

RePack

FAR CRY 5

Anonymous, добрый день, мы катастрофически не успеваем собрать деньги на оплату серверов, помогите нам пожалуйста 5,10,15р., для нас важна любая помощь . В качестве благодарности мы отключим Вам всю рекламу на сайте (укажите свой ник в строку Ваше имя)!

×
  
Magnet ссылка

Необратимость / Irréversible (Гаспар Ноэ) [2002 г., драма, триллер, детектив, DVDRip ] DVO + Original + Sub piratbit.org

Необратимость через торрент piratbit.org

Размер: 2 GB | Добавлен: 7 лет 2 мес. назад | Торрент скачан:345 раз
Скачать  

02-06-2014 06:50 Необратимость Скачать торрент  

Необратимость / Irréversible
Год выпуска: 2002
Страна: Франция
Жанр: драма, триллер, детектив
Продолжительность: 01:33:59
Перевод: Профессиональный двухголосый
Режиссер: Гаспар Ноэ
В ролях: Моника Беллуччи (Alex), Венсан Кассель (Marcus), Альбер Дюпонтель (Pierre), Джо Престиа (Le Tenia), Филипп Наон (Philippe), Стефан Друо (Stéphane), Жан-Луи Кост (Fistman), Мишель Гондуэн (Mick), Мурад Хима (Mourad), Эллаль (Layde), Нато (Commissaire), Fesche (Chauffeur Taxi)

Описание: История раскручивается из конца в начало. Темнота ночи, багровые отблески на стенах притона, бледные, как простыня, лица. Герой Венсента Касселя мечется в лабиринте и переходов одного из подпольных гей-клубов. Цель - найти и убить человека, которого он… никогда даже не видел в глаза. Но у него есть веская причина ненавидеть: незнакомец до смерти изнасиловал его подругу, с которой случайно столкнулся в безлюдном городском переходе…
Cамая натуралистичная сцена изнасилования за всю историю кинематографа - 9 минут анального секса. Два убийства, толпа геев и трансвеститов, полностью обнаженные Венсент Кассель и Моника Беллуччи…

Ограничения по возрасту: 18+

Качество: DVDRip
Формат: AVI
Видео кодек: DivX
Аудио кодек: AC3
Видео: MPEG4, DivX 5, 720x320 (2.25:1), 25.000 fps, 2 267 Kbps (0.394 bit/pixel)
Аудио#1: AC-3, 48.0 KHz, 6 ch, 384 Kbps, CBR
Аудио#2: AC-3, 48.0 KHz, 6 ch, 384 Kbps, CBR
Субтитры: русские
General
Complete name : C:\Users\xxx\Downloads\Необратимость\Необратимость.avi
Format : AVI
Format/Info : Audio Video Interleave
File size : 2.00 GiB
Duration : 1h 33mn
Overall bit rate : 3 044 Kbps
Writing application : VirtualDubMod 1.5.10.2 (build 2542/release)
Writing library : VirtualDubMod build 2542/release

Video
ID : 0
Format : MPEG-4 Visual
Format profile : Advanced Simple@L5
Format settings, BVOP : 2
Format settings, QPel : No
Format settings, GMC : No warppoints
Format settings, Matrix : Default (MPEG)
Muxing mode : Packed bitstream
Codec ID : DX50
Codec ID/Hint : DivX 5
Duration : 1h 33mn
Bit rate : 2 267 Kbps
Width : 720 pixels
Height : 320 pixels
Display aspect ratio : 5:4
Original display aspect ratio : 2.25:1
Frame rate : 25.000 fps
Color space : YUV
Chroma subsampling : 4:2:0
Bit depth : 8 bits
Scan type : Progressive
Compression mode : Lossy
Bits/(Pixel*Frame) : 0.394
Stream size : 1.49 GiB (74%)
Writing library : XviD 1.2.1 (UTC 2008-12-04)

Audio #1
ID : 1
Format : AC-3
Format/Info : Audio Coding 3
Mode extension : CM (complete main)
Format settings, Endianness : Big
Codec ID : 2000
Duration : 1h 33mn
Bit rate mode : Constant
Bit rate : 384 Kbps
Channel(s) : 6 channels
Channel positions : Front: L C R, Side: L R, LFE
Sampling rate : 48.0 KHz
Bit depth : 16 bits
Compression mode : Lossy
Delay relative to video : 8ms
Stream size : 256 MiB (13%)
Alignment : Split accross interleaves
Interleave, duration : 40 ms (1.01 video frame)
Interleave, preload duration : 500 ms

Audio #2
ID : 2
Format : AC-3
Format/Info : Audio Coding 3
Mode extension : CM (complete main)
Format settings, Endianness : Big
Codec ID : 2000
Duration : 1h 33mn
Bit rate mode : Constant
Bit rate : 384 Kbps
Channel(s) : 6 channels
Channel positions : Front: L C R, Side: L R, LFE
Sampling rate : 48.0 KHz
Bit depth : 16 bits
Compression mode : Lossy
Delay relative to video : 8ms
Stream size : 256 MiB (13%)
Alignment : Split accross interleaves
Interleave, duration : 40 ms (1.01 video frame)
Interleave, preload duration : 500 ms
«Необратимость» состоит из тринадцати эпизодов различной длины, смонтированных в обратном хронологическом порядке.
Премьера фильма «Необратимость» состоялась 23 мая 2002 года в рамках 55-го Каннского кинофестиваля. Картина участвовала в основном конкурсе.
Слоган ленты «Время уничтожает всё» — первая фраза, звучащая в картине.
Фильм получил скандальную известность из-за двух сцен: семиминутного анального изнасилования героини Моники Белуччи Алекс и жестокого убийства посетителя в садо-мазо-гей-клубе «Прямая кишка» (более двадцати ударов огнетушителем по голове).
Начальные эпизоды фильма оформлены почти неслышимым низкочастотным звуком, похожим на шум землетрясения. У многих людей данный шум вызывает беспокойство, лёгкую тошноту и головокружение. Считается, что звуковое оформление «Необратимости» — основная причина, по которой зрители уходили с просмотра в течение первых тридцати минут ленты. Именно на такую реакцию и рассчитывал режиссёр Гаспар Ноэ.
Музыку к фильму написал Тома Бангальтер, участник электронного дуэта Daft Punk. Помимо оригинальной музыки в картине звучат Седьмая симфония Людвига ван Бетховена и Девятая симфония Густава Малера.
Режиссёр и сценарист «Необратимости» Гаспар Ноэ является также одним из операторов и сопродюсеров фильма. Кроме того он сыграл камео — роль мастурбирующего клиента клуба «Прямая кишка».
Фильм включен в список запрещенных к распространению в Республике Беларусь.
piratbit.org



Скачать Необратимость через торрент http://i62.fastpic.ru/big/2014/0602/cc/7f4d02b84de64dbca0840c2d235e47cc.jpg Скачать фильм Необратимость через торрент бесплантно в хорошем качестве Описание: История раскручивается из конца в начало. Темнота ночи, багровые отблески на стенах притона, бледные, как простыня, лица. Герой ... 9.1 10 10
Торрент: Зарегистрирован [2014-06-02 07:35] · скачан: 345 раз
Статус: √ проверено
Размер: 2 GB
Как cкачать? Как скачать Необратимость через торрент | UTorrent

% Раздел Тема Автор DL S | L
Фильмы 2001-2005 [ 2.02 GB ] Необратимость / Irréversible [2002 DVDRip-AVC] DVO + Original + Sub Kristian Larsson Скачать
1 | 0

28-11-2019 20:33  

Отключить всю рекламу на сайте


02-06-2014 08:22 Необратимость Скачать торрент  

Посмотрел я в свое время этот фильм и скажу одно - второй раз смотреть не стану! И не потому что фильм плохой, а потому что ОДНОГО просмотра этого ошеломляющего фильма мне ХВАТИЛО... На протяжении просмотра всего фильма чувствовалась вся его атмосфера. Через минут двадцать-тридцать после окончания титров я поймал себя на мысли, что сижу и просто, глубоко задумавшись, смотрю на пустой монитор.. Как-то так...piratbit.org



02-06-2014 09:22 Необратимость Скачать торрент  

Очень грязный фильм. Смотрел его ранее. Желания посмотреть второй раз - нет.piratbit.org



09-06-2014 15:18 Необратимость Скачать торрент  

спасибо за фильм !!!piratbit.org



    Дорогой пользователь! Огромная просьба, поблагодарите релизера, оцените раздачу и оставьте свои комментарий, если Вы скачали Необратимость через торрент бесплатно! Внесите свою лепту в развитие PiratBit!
    Комментировать посты могут только пользователи прошедшие не сложную регистрацию
    Показать сообщения:    

    Необратимость через торрент
    Скачать бесплатно Необратимость
    Необратимость скачать торрент
    Необратимость смотреть онлайн
    Cкачать фильм Необратимость бесплатно
    Необратимость скачать торрент в хорошем качестве
    Необратимость смотреть онлайн бесплатно в хорошем качестве


    Вы не можете начинать темы
    Вы не можете отвечать на сообщения
    Вы не можете редактировать свои сообщения
    Вы не можете удалять свои сообщения
    Вы не можете голосовать в опросах
    Вы не можете прикреплять файлы к сообщениям
    Вы можете скачивать файлы