Ссылка на приватное зеркало нашего сайта всего за 1$. Внимание количество ограничено!!!

2 сезон

iTunes

iTunes

1

iTunes

iTunes

iTunes

WEBRip

iTunes

30
pack

Вам бонус

ВАЖНО

!!Акция!!

Alien_RageХит недели

RePack

Horizon Zero Dawn

ИГРА 18+

pack

RePack

jed

!!Акция!!

Alien_Rage

RePack

fifa19

RePack

Assassins Creed: Odyssey

RePack

NEED FOR SPEED™ PAYBACK

4 сезон

9 сезон

Бесстыжие 9 сезон

Все сериалы

все сериалы на PB.wtf

RePack

FAR CRY 5
  

Человек-паук 3: Враг в отражении / Spider-Man 3 (Сэм Рэйми) [2007 г., Фантастика, боевик, приключения, HDRip-AVC, Дубляж] piratbit.org

Человек-паук 3: Враг в отражении через торрент piratbit.org

Размер: 3.77 GB | Добавлен: 6 лет 3 мес. назад | Торрент скачан:129 раз
Скачать  

16-06-2014 19:10 Человек-паук 3: Враг в отражении Скачать торрент  

Человек-паук 3: Враг в отражении / Spider-Man 3Год выпуска: 2007
Страна: США
Жанр: Фантастика, боевик, приключения
Продолжительность: 02:19:11
Перевод: Дубляж
Субтитры: Английские (softsub (SSA/ASS)

Режиссер: Сэм Рэйми
Продюссер: Ави Арад, Грант Кертис, Лора Зискин
Сценарий: Сэм Рэйми, Айван Рэйми, Элвин Сарджент

Бюджет: $258 000 000
Премьера в мире: 16 апреля 2007



В ролях: Тоби Магуайр, Кирстен Данст, Джеймс Франко, Томас Хейден Чёрч, Тофер Грейс, Брайс Даллас Ховард, Розмари Харрис, Дж.К. Симмонс, Джеймс Кромуэлл, Илья Баскин

Описание: Прошло пять лет с тех пор, как Питер осознал, что «с Великой силой приходит Великая ответственность!», и три года с тех пор, как он отказался быть борцом за справедливость. Но сейчас кажется, Питер прекрасно научился жить несколькими жизнями. Он хорошо учится, Нью-Йорк признал его героем, отношения с Мэри Джейн прочные. Питер даже намеревается сделать ей предложение!
Но к сожалению, его лучший друг Гарри Озборн по-прежнему считает, что именно Человек-паук несет ответственность за безвременную кончину его отца. Гарри намеревается отомстить ему в образе Нового Гоблина. В то же самое время на криминальной сцене Нью-Йорка появляется другой могущественный суперзлодей, известный как Песочный Человек.
Когда Человек-паук надевает таинственный черный костюм, его темная, более мстительная сторона полностью поглощает его. Эти трансформации заставляют его встретиться с самым сильным противником ― с самим собой…

Качество: HDRip-AVC | BDRip 1080p
Формат: MKV
Видео кодек: H.264
Аудио кодек: AC3
Видео: 1024 x 424 (2,40:1), 23,976 fps, AVC (х264) High@L4.1, ~3500 Kbps, 0.336 bit/pixel
Аудио: 48 kHz, AC3 Dolby Digital, 3/2 (L,C,R,l,r) + LFE ch, ~ 384 kbps avg


Релиз группа: | by Dean24
скриншот  скриншот  скриншот  
скриншот  скриншот  скриншот  





avs [info]: 1024x424p 1:1 @ 2500000/104271 fps (cfr)
x264 [info]: using SAR=1/1
x264 [info]: using cpu capabilities: MMX2 SSE2Fast SSSE3 Cache64 SlowShuffle
x264 [info]: profile High, level 4.1
x264 [info]: frame I:1630 Avg QP:13.76 size:106073
x264 [info]: frame P:54167 Avg QP:17.08 size: 33767
x264 [info]: frame B:144432 Avg QP:19.52 size: 11402
x264 [info]: consecutive B-frames: 5.7% 7.0% 8.5% 31.9% 13.3% 22.4% 4.9% 4.6% 0.8% 0.4% 0.5%
x264 [info]: mb I I16..4: 16.4% 49.9% 33.7%
x264 [info]: mb P I16..4: 2.3% 17.0% 3.6% P16..4: 29.4% 23.4% 17.1% 1.8% 0.7% skip: 4.6%
x264 [info]: mb B I16..4: 0.2% 2.7% 0.6% B16..8: 36.8% 15.1% 5.0% direct: 7.2% skip:32.3% L0:41.9% L1:41.4% BI:16.7%
x264 [info]: 8x8 transform intra:73.1% inter:54.5%
x264 [info]: direct mvs spatial:97.3% temporal:2.7%
x264 [info]: coded y,uvDC,uvAC intra: 87.2% 83.9% 65.8% inter: 32.3% 27.6% 10.4%
x264 [info]: i16 v,h,dc,p: 49% 12% 14% 25%
x264 [info]: i8 v,h,dc,ddl,ddr,vr,hd,vl,hu: 14% 10% 10% 8% 11% 11% 12% 11% 12%
x264 [info]: i4 v,h,dc,ddl,ddr,vr,hd,vl,hu: 15% 9% 6% 9% 14% 12% 13% 11% 12%
x264 [info]: i8c dc,h,v,p: 47% 21% 18% 14%
x264 [info]: Weighted P-Frames: Y:2.8% UV:1.4%
x264 [info]: ref P L0: 49.1% 10.7% 17.0% 5.3% 4.7% 2.7% 2.7% 1.4% 1.5% 1.0% 1.0% 0.8% 0.8% 0.6% 0.7% 0.1%
x264 [info]: ref B L0: 73.3% 11.6% 4.9% 2.7% 1.8% 1.4% 1.1% 0.8% 0.6% 0.5% 0.5% 0.5% 0.2% 0.1%
x264 [info]: ref B L1: 93.3% 6.7%
x264 [info]: kb/s:3495.23

x264 [total]: encoded 200229 frames, 1.26 fps, 3495.23 kb/s
_____________________
Общее:
Уникальный идентификатор: 193418502274008379867245267770578601012 (0x91830C6CA5576D8D91AA27783ABC8434)
Полное имя: D:\Для сайта\Rip's\Spider-Man_3_HDRip-AVC_ot_DHT-Movies.mkv
Формат: Matroska
Версия формата: Version 4 / Version 2
Размер файла: 3,77 Гбайт
Продолжительность: 2 ч. 19 м.
Общий поток: 3881 Кбит/сек
Название фильма: Spider-Man_3_HDRip-AVC_ot_DHT-Movies
Дата кодирования: UTC 2014-06-16 12:29:32
Программа кодирования: mkvmerge v6.6.0 ('The Edge Of The In Between') built on Dec 1 2013 17:55:00
Библиотека кодирования: libebml v1.3.0 + libmatroska v1.4.1

Видео:
Идентификатор: 1
Формат: AVC
Формат/Информация: Advanced Video Codec
Профиль формата: High@L4.1
Параметр CABAC формата: Да
Параметр ReFrames формата: 15 кадров
Идентификатор кодека: V_MPEG4/ISO/AVC
Продолжительность: 2 ч. 19 м.
Битрейт: 3500 Кбит/сек
Ширина: 1024 пикселя
Высота: 424 пикселя
Соотношение сторон: 2,40:1
Режим частоты кадров: Постоянный
Частота кадров: 23,976 кадра/сек
Цветовое пространство: YUV
Субдискретизация насыщенности: 4:2:0
Битовая глубина: 8 бит
Тип развёртки: Прогрессивная
Бит/(Пиксели*Кадры): 0.336
Размер потока: 3,33 Гбайт (88%)
Библиотека кодирования: x264 core 130 r2273 b3065e6
Настройки программы: cabac=1 / ref=15 / deblock=1:-2:-1 / analyse=0x3:0x133 / me=umh / subme=10 / psy=1 / psy_rd=0.97:0.10 / mixed_ref=1 / me_range=32 / chroma_me=1 / trellis=2 / 8x8dct=1 / cqm=0 / deadzone=21,11 / fast_pskip=0 / chroma_qp_offset=-3 / threads=3 / lookahead_threads=1 / sliced_threads=0 / nr=0 / decimate=1 / interlaced=0 / bluray_compat=0 / constrained_intra=0 / bframes=10 / b_pyramid=2 / b_adapt=2 / b_bias=0 / direct=3 / weightb=1 / open_gop=0 / weightp=2 / keyint=240 / keyint_min=23 / scenecut=40 / intra_refresh=0 / rc_lookahead=60 / rc=2pass / mbtree=1 / bitrate=3500 / ratetol=1.0 / qcomp=0.60 / qpmin=0 / qpmax=69 / qpstep=4 / cplxblur=20.0 / qblur=0.5 / ip_ratio=1.40 / aq=1:1.00
Default: Да
Forced: Нет

Аудио:
Идентификатор: 2
Формат: AC-3
Формат/Информация: Audio Coding 3
Расширение режима: CM (complete main)
Параметр Endianness формата: Big
Идентификатор кодека: A_AC3
Продолжительность: 2 ч. 19 м.
Вид битрейта: Постоянный
Битрейт: 384 Кбит/сек
Каналы: 6 каналов
Расположение каналов: Front: L C R, Side: L R, LFE
Частота: 48,0 КГц
Битовая глубина: 16 бит
Метод сжатия: С потерями
Размер потока: 382 Мбайт (10%)
Default: Да
Forced: Нет

Текст:
Идентификатор: 3
Формат: ASS
Идентификатор кодека: S_TEXT/ASS
Идентификатор кодека/Информация: Advanced Sub Station Alpha
Метод сжатия: Без потерь
Язык: English
Default: Да
Forced: Нет

piratbit.org



Скачать Человек-паук 3: Враг в отражении через торрент http://i61.fastpic.ru/big/2014/0616/ba/ab593a5b5916a1addb6821ebc23dedba.png Скачать фильм Человек-паук 3: Враг в отражении через торрент бесплантно в хорошем качестве Описание: Прошло пять лет с тех пор, как Питер осознал, что «с Великой силой приходит Великая ответственность!», и три года с тех пор, как ... 10 10 11
Торрент: Зарегистрирован [2014-06-16 19:10] · скачан: 129 раз
Статус: √ проверено
Размер: 3.77 GB
Как cкачать? Как скачать Человек-паук 3: Враг в отражении через торрент | qTorrent

% Раздел Тема Автор DL S | L
Ultra HD (UHD: 2K, 4K, 8K) — видео сверхвысокой чёткости [ 63.67 GB ] Человек-паук 3: Враг в отражении / Spider-Man 3 [2007 UHD BDRemux 2160p] DUB [] + 2xAVO sheker187 Скачать
1 | 0
Ultra HD (UHD: 2K, 4K, 8K) — видео сверхвысокой чёткости [ 75.16 GB ] Человек-паук 3: Враг в отражении / Spider-Man 3 [2007 UHD Blu-ray 2160p ] BD CEE Felodrein Скачать
1 | 0
Фильмы 2006-2008 [ 2.18 GB ] Человек-паук 3: Враг в отражении / Spider-Man 3 [2007 HDRip-AVC DUB SUB] от R.G. PiratFilms кэп Скачать
1 | 0
Фильмы 2009 [ 4.35 GB ] Человек-паук 123 / Spider-Man 123 [2002 2004 2007 г HDRip] DUB Venxxx Скачать
1 | 0

28-11-2019 20:33  

Отключить всю рекламу на сайте

    Дорогой пользователь! Огромная просьба, поблагодарите релизера, оцените раздачу и оставьте свои комментарий, если Вы скачали Человек-паук 3: Враг в отражении через торрент бесплатно! Внесите свою лепту в развитие PiratBit!
    Комментировать посты могут только пользователи прошедшие не сложную регистрацию
    Показать сообщения:    

    Человек-паук 3: Враг в отражении через торрент
    Скачать бесплатно Человек-паук 3: Враг в отражении
    Человек-паук 3: Враг в отражении скачать торрент
    Человек-паук 3: Враг в отражении смотреть онлайн
    Cкачать фильм Человек-паук 3: Враг в отражении бесплатно
    Человек-паук 3: Враг в отражении скачать торрент в хорошем качестве
    Человек-паук 3: Враг в отражении смотреть онлайн бесплатно в хорошем качестве


    Вы не можете начинать темы
    Вы не можете отвечать на сообщения
    Вы не можете редактировать свои сообщения
    Вы не можете удалять свои сообщения
    Вы не можете голосовать в опросах
    Вы не можете прикреплять файлы к сообщениям
    Вы можете скачивать файлы