Лицензия

MVO

1

1 сезон

Лицензия

Лицензия

13

MVO

1 сезон

Deluxe Edition

pack

Рекомендуем

30

Repack

ВАЖНО

ВАЖНО

Ghostwire

RePack

jed

RePack

fifa19

RePack

RDR2

RePack

NEED FOR SPEED™ PAYBACK

RePack

Кинопоиск HD

 Острые козырьки 6 сезон

6 сезон

FAR CRY 6

RePack

Лицензия

MVO

1

1 сезон

1 сезон

Лицензия

  

Розыгрыш (Владимир Меньшов) [1976 г., мюзикл, мелодрама, DVDRip]

Розыгрыш через торрент piratbit.org

Качают: 1 [ 0 KB/s ]
Размер: 1.46 GB | Добавлен: 8 лет 3 мес. назад | Торрент скачан:26 раз
Смотреть онлайн Розыгрыш | Скачать   

17-06-2014 12:52 Розыгрыш Скачать торрент  

РозыгрышГод выпуска: 1976
Страна: СССР
Жанр: мюзикл, мелодрама
Продолжительность: 01:30:59
Субтитры: отсутствуют

Режиссер: Владимир Меньшов
Сценарий: Семен Лунгин

Премьера в мире: 10 января 1977










В ролях: Евгения Ханаева, Наталья Фатеева, Зиновий Гердт, Гарри Бардин, Павел Винник, Муза Крепкогорская, Любовь Мышева, Наталья Вавилова, Дмитрий Харатьян (вокал - Анатолий Киселев), Андрей Гусев, Александр Жильцов, Николай Константинов, Арсен Михайлов, Евдокия Германова, Ирина Кораблева, Галина Манухина, Олег Табаков, Нина Савищева, Дмитрий Николаев, Владимир Меньшов, Мария Виноградова, Алексей Борзунов, Ирина Мурзаева, Павел Максименков, Светлана Степанова, Владимир Соколов




Описание: В девятый "Б" класс московской школы приходит новенький, Игорь Грушко, семья которого переехала в столицу из Новосибирска. Игорь любит музыку, пишет песни, поёт, играет на гитаре и мечтает о создании школьного ансамбля. Однажды в его классе происходит попытка сорвать контрольную по математике. Ребята, с подачи негласного лидера Олега Комаровского, заявляют, что о контрольной их добрая, но строгая и принципиальная классная руководительница заранее не предупреждала. И заслуженный педагог Мария Васильевна Девятова, незадолго до своего 55-летнего юбилея получившая вот такой "подарок", верит, в ужасе решив, что она потеряла память и у нее, в силу возрастных изменений, начинается склероз. Значит, ей пора уходить из школы на пенсию. А для нее, вырастившей бессчетное количество Комаровских и иже с ними (32 выпуска), вся жизнь сосредоточена в работе. К счастью, выясняется, что это была ложь. Солгали все вызванные, кроме Таи Петровой, врать органически не способной. После разоблачения старшеклассники начинают утверждать, что это была шутка, розыгрыш. Но тем, кто солгал, поставили "колы", включая Олега Комаровского, которому единица по математике закрыла дорогу к международной олимпиаде...




Качество: DVDRip
Формат: AVI
Видео кодек: XviD
Аудио кодек: AC3
Видео: 704x304 (2.32:1), 25 fps, XviD 1.2.1, 1834 kbps avg, 0.34 bit/pixel
Аудио: 48 kHz, AC3 Dolby Digital, 3/2 (L,C,R,l,r) + LFE ch, 448.00 kbps avg


Полное имя : Rosygrysh.avi
Формат : AVI
Формат/Информация : Audio Video Interleave
Размер файла : 1,46 Гбайт
Продолжительность : 1 ч. 30 м.
Общий поток : 2293 Кбит/сек
Программа кодирования : VirtualDubMod 1.5.10.3 (build 2550/release)
Библиотека кодирования : VirtualDubMod build 2550/release
Видео
Идентификатор : 0
Формат : MPEG-4 Visual
Профиль формата : Advanced Simple@L5
Параметр BVOP формата : 2
Параметр QPel формата : Нет
Параметр GMC формата : Без точки перехода
Параметр матрицы формата : Выборочная
Идентификатор кодека : XVID
Идентификатор кодека/Подсказка : XviD
Продолжительность : 1 ч. 30 м.
Битрейт : 1835 Кбит/сек
Ширина : 704 пикселя
Высота : 304 пикселя
Соотношение сторон : 2,35:1
Частота кадров : 25,000 кадров/сек
Цветовое пространство : YUV
Субдискретизация насыщенности : 4:2:0
Битовая глубина : 8 бит
Тип развёртки : Прогрессивная
Метод сжатия : С потерями
Бит/(Пиксели*Кадры) : 0.343
Размер потока : 1,17 Гбайт (80%)
Библиотека кодирования : XviD 1.2.1 (UTC 2008-12-04)
Аудио
Идентификатор : 1
Формат : AC-3
Формат/Информация : Audio Coding 3
Расширение режима : CM (complete main)
Параметр Endianness формата : Big
Идентификатор кодека : 2000
Продолжительность : 1 ч. 30 м.
Вид битрейта : Постоянный
Битрейт : 448 Кбит/сек
Каналы : 6 каналов
Расположение каналов : Front: L C R, Side: L R, LFE
Частота : 48,0 КГц
Битовая глубина : 16 бит
Метод сжатия : С потерями
Размер потока : 292 Мбайт (20%)
Выравнивание : Разделение по промежуткам
Продолжительность промежутка : 40 мс. (1,00 видеокадр)
Время предзагрузки промежутка : 500 мс.




Скачать Розыгрыш через торрент https://pic1.kartinco.top/images/61/xcguk.jpg Скачать, смотреть онлайн Розыгрыш бесплантно в хорошем качестве Описание: В девятый "Б" класс московской школы приходит новенький, Игорь Грушко, семья которого переехала в столицу из Новосибирска. Игорь ... 10 10 4
Info! Золотая раздача, скачанное не засчитывается.
Торрент: Зарегистрирован [2014-06-17 12:52] · скачан: 26 раз
Статус: √ проверено
Размер: 1.46 GB
Как cкачать? Как скачать Розыгрыш через торрент | UTorrent

28-11-2019 20:33  

Отключить вcю реклaмy на сайте

    Дорогой пользователь! Огромная просьба, поблагодарите релизера, оцените раздачу и оставьте свои комментарий, если Вы скачали Розыгрыш через торрент бесплатно!!
    Комментировать посты могут только пользователи прошедшие не сложную регистрацию
    Показать сообщения:    


    Розыгрыш через торрент
    Скачать бесплатно Розыгрыш
    Розыгрыш скачать торрент
    Розыгрыш смотреть онлайн
    Cкачать фильм Розыгрыш бесплатно
    Розыгрыш скачать торрент в хорошем качестве
    Розыгрыш смотреть онлайн бесплатно в хорошем качестве
    Вы не можете начинать темы
    Вы не можете отвечать на сообщения
    Вы не можете редактировать свои сообщения
    Вы не можете удалять свои сообщения
    Вы не можете голосовать в опросах
    Вы не можете прикреплять файлы к сообщениям
    Вы можете скачивать файлы