Доктор Стрэндж

Лицензия

Добыча

MVO

Дом дракона

1 сезон

Тор

Лицензия

Мэверик

Лицензия

Там, где раки поют

MVO

Властелин колец

1 сезон

Ultimate

pack

Рекомендуем

30

Repack

ВАЖНО

ВАЖНО

Ghostwire

RePack

jed

RePack

nioh2

RePack

RDR2

RePack

NEED FOR SPEED™ PAYBACK

RePack

скачать торрент

Кинопоиск HD

Острые козырьки 6 сезон

6 сезон

FAR CRY 6

RePack

скачать торрент

Лицензия

скачать торрент

MVO

1

1 сезон

скачать торрент

1 сезон

скачать торрент

Лицензия

  

Зеркало для героя (Владимир Хотиненко) [1987, СССР, фантастика, фэнтези, драма, DVDRip-AVC]

Зеркало для героя через торрент piratbit.org

Размер: 1.67 GB | Добавлен: 8 лет 3 мес. назад | Торрент скачан:315 раз
Смотреть онлайн Зеркало для героя | Скачать   

27-06-2014 04:36 Зеркало для героя Скачать торрент  

Зеркало для героя


Год выпуска: 1987
Страна: СССР
Жанр:фантастика, фэнтези, драма
Продолжительность:02:11:16
Перевод:Не требуется

Субтитры: Нет
Режиссер:Владимир Хотиненко

  • В ролях:

    Сергей Колтаков (Сергей Кириллович Пшеничный, лингвист-психолог), Иван Бортник (Андрей Иванович Немчинов, горный инженер), Борис Галкин (Кирилл Иванович Пшеничный, отец Сергея в молодости), Наталья Акимова (Лида, мать Сергея), Феликс Степун (Кирилл Иванович Пшеничный, отец Сергея в старости), Елена Гольянова (Роза, рабочая на шахте), Яков Степанов (Сашка-танкист, слепой инвалид войны, брат Розы), Виктор Смирнов (Тюкин Алексей Николаевич, начальник шахты), Николай Стоцкий (Федор Петренко, молодой шахтёр), Сергей Паршин (Пухарев, шахтёр-стахановец), Валентин Аронян, Александр Песков (Рябенко, милиционер)

  • Описание:
    Двое случайных знакомых, Сергей Пшеничный и Андрей Немчинов, волею загадочных обстоятельств переносятся почти на 40 лет назад. Этот день - 8 мая 1949 года - начинает повторяться для них с неумолимым постоянством. Каждому из героев судьба дает свой шанс: Андрей может предотвратить гибель людей в обветшавшей шахте, Сергей - по-новому взглянуть на своих родителей и понять их.

  • Мировая премьера:16 апреля 1988


      Качество: DVDRip-AVC
      Формат: MKV
      Видео кодек: AVC
      Аудио кодек:AC3
      Видео: AVC, 704x512 (3:2), 1565 kbps, 25 fps, 0,174 bpp
      Аудио: русский / AC3 / 2.0 / 48 kHz / 224 kbps / 16 bit ||


    Код:

    General
    Unique ID                                : 239670866116377578987486840269227409149 (0xB44EEE06650BE40D9CB4D61FFA73BEFD)
    Complete name                            : D:\Торенты\Zerkalo glya geroya (1987).mkv
    Format                                   : Matroska
    Format version                           : Version 1
    File size                                : 1.67 GiB
    Duration                                 : 2h 11mn
    Overall bit rate                         : 1 826 Kbps
    Encoded date                             : UTC 2009-10-21 13:09:09
    Writing application                      : mkvmerge v2.6.0 ('Kelly watch the Stars') built on Mar 24 2009 15:23:17
    Writing library                          : libebml v0.7.7 + libmatroska v0.8.1

    Video
    ID                                       : 1
    Format                                   : AVC
    Format/Info                              : Advanced Video Codec
    Format profile                           : High@L3.0
    Format settings, CABAC                   : Yes
    Format settings, ReFrames                : 5 frames
    Codec ID                                 : V_MPEG4/ISO/AVC
    Duration                                 : 2h 11mn
    Bit rate                                 : 1 566 Kbps
    Width                                    : 704 pixels
    Height                                   : 512 pixels
    Display aspect ratio                     : 3:2
    Original display aspect ratio            : 1.375
    Frame rate                               : 25.000 fps
    Color space                              : YUV
    Chroma subsampling                       : 4:2:0
    Bit depth                                : 8 bits
    Scan type                                : Progressive
    Bits/(Pixel*Frame)                       : 0.174
    Stream size                              : 1.44 GiB (86%)
    Writing library                          : x264 core 77 r1281 3836218
    Encoding settings                        : cabac=1 / ref=5 / deblock=1:0:0 / analyse=0x3:0x133 / me=tesa / subme=10 / psy=1 / psy_rd=1.0:0.0 / mixed_ref=1 / me_range=16 / chroma_me=1 / trellis=2 / 8x8dct=1 / cqm=0 / deadzone=21,11 / chroma_qp_offset=-2 / threads=3 / nr=0 / decimate=0 / mbaff=0 / constrained_intra=0 / bframes=3 / b_pyramid=0 / b_adapt=2 / b_bias=0 / direct=1 / wpredb=1 / keyint=250 / keyint_min=25 / scenecut=40 / rc_lookahead=40 / rc=crf / mbtree=1 / crf=16.0 / qcomp=0.70 / qpmin=10 / qpmax=51 / qpstep=4 / ip_ratio=1.40 / aq=1:1.00
    Default                                  : Yes
    Forced                                   : No

    Audio
    ID                                       : 2
    Format                                   : AC-3
    Format/Info                              : Audio Coding 3
    Mode extension                           : CM (complete main)
    Codec ID                                 : A_AC3
    Duration                                 : 2h 11mn
    Bit rate mode                            : Constant
    Bit rate                                 : 224 Kbps
    Channel(s)                               : 2 channels
    Channel positions                        : Front: L R
    Sampling rate                            : 48.0 KHz
    Bit depth                                : 16 bits
    Compression mode                         : Lossy
    Stream size                              : 210 MiB (12%)
    Language                                 : Russian
    Default                                  : Yes
    Forced                                   : No

    Скриншоты:
    скриншот   скриншот   скриншот   скриншот  

    Каталог Новинок (Фильмы-трейлеры, Игры, Сериалы, Мультфильмы)

    © Оформление by Raven



  • Скачать Зеркало для героя через торрент http://i61.fastpic.ru/big/2014/0627/38/2a2c6b2dc26153701fef7abf0a08ac38.png Скачать, смотреть онлайн Зеркало для героя бесплантно в хорошем качестве Описание:Двое случайных знакомых, Сергей Пшеничный и Андрей Немчинов, волею загадочных обстоятельств переносятся почти на 40 лет назад. ... 9.2 10 13
    Info! Золотая раздача, скачанное не засчитывается.
    Торрент: Зарегистрирован [2014-06-27 04:36] · скачан: 315 раз
    Статус: √ проверено
    Размер: 1.67 GB
    Как cкачать? Как скачать Зеркало для героя через торрент | UTorrent

    % Раздел Тема Автор DL S | L
    Кино СССР [ 1.46 GB ] Зеркало для героя | | DVDRip Ворон Скачать
    1 | 0



    Последний раз редактировалось: Ворон (2014-06-30 16:19), всего редактировалось 1 раз

    28-11-2019 20:33  

    Отключить вcю реклaмy на сайте

    27-06-2014 04:37 Зеркало для героя Скачать торрент  

    Фильм шикарный.



    27-06-2014 06:01 Зеркало для героя Скачать торрент  

    Raven, большое спасибо. К своему стыду даже не знал об этом фильме.



    27-06-2014 06:20 Зеркало для героя Скачать торрент  

    igorutka, да я сам ток недавно узнал, фильм очень порадовал.



    05-03-2021 13:36 Зеркало для героя Скачать торрент  

    ФИЛЬМ КРУТОЙ!



      Дорогой пользователь! Огромная просьба, поблагодарите релизера, оцените раздачу и оставьте свои комментарий, если Вы скачали Зеркало для героя через торрент бесплатно!!
      Комментировать посты могут только пользователи прошедшие не сложную регистрацию
      Показать сообщения:    


      Зеркало для героя через торрент
      Скачать бесплатно Зеркало для героя
      Зеркало для героя скачать торрент
      Зеркало для героя смотреть онлайн
      Cкачать фильм Зеркало для героя бесплатно
      Зеркало для героя скачать торрент в хорошем качестве
      Зеркало для героя смотреть онлайн бесплатно в хорошем качестве
      Вы не можете начинать темы
      Вы не можете отвечать на сообщения
      Вы не можете редактировать свои сообщения
      Вы не можете удалять свои сообщения
      Вы не можете голосовать в опросах
      Вы не можете прикреплять файлы к сообщениям
      Вы можете скачивать файлы