1 сезон

iTunes

iTunes

1

Line

MVO

iTunes

13

1 сезон

RePack

30

Deluxe

pack

Лицензия

ВАЖНО

ИГРА 18+

pack

RePack

MK11

RePack

jed

RePack

fifa19

RePack

RDR2

RePack

NEED FOR SPEED™ PAYBACK

4 сезон

9 сезон

Бесстыжие 9 сезон

Все сериалы

все сериалы на PB.wtf

RePack

FAR CRY 5

Anonymous, добрый день, мы катастрофически не успеваем собрать деньги на оплату серверов, помогите нам пожалуйста 5,10,15р., для нас важна любая помощь . В качестве благодарности мы отключим Вам всю рекламу на сайте (укажите свой ник в строку Ваше имя)!

×
  
Magnet ссылка

Последний рейд / The Missing (Рон Ховард / Ron Howard) [2003, США, триллер, приключения, вестерн, HDTVRip,Многоголосый, закадровый) piratbit.org

Последний рейд через торрент piratbit.org

Размер: 1.77 GB | Добавлен: 7 лет назад | Торрент скачан:242 раза
Скачать  

10-07-2014 04:24 Последний рейд Скачать торрент  

Последний рейд / The Missing

Год выпуска: 2003
Страна: США
Жанр: триллер, приключения, вестерн
Продолжительность: 02:11:17
Перевод: Многоголосый, закадровый
Субтитры: Нет
Режиссер: Рон Ховард / Ron Howard
В ролях: Томми Ли Джонс (Samuel Jones / Chaa-duu-ba-its-iidan), Кейт Бланшетт (Magdalena Gilkeson), Эван Рэйчел Вуд (Lilly Gilkeson), Аарон Экхарт (Brake Baldwin), Дженна Бойд (Dot Gilkeson), Вэл Килмер (Lt. Jim Ducharme), Серхио Кальдерон (Emiliano), Эрик Швейг (Pesh-Chidin / El Brujo), Стив Ривис (Two Stone), Джей Таваре (Kayitah), Саймон Бэйкер (Honesco, Kayitah's son), Рэй МакКиннон (Russell J. Wittick)
Описание:
Дикий Запад, 1886 год. Старый Сэм, много лет назад бросивший свою семью и ушедший жить к индейцам племени апачей, возвращается в родной дом, в надежде помириться с дочерью Мэгги Гилксон.
И хотя в сердце Мэгги все еще жива горькая обида, она вынуждена обратиться к отцу за помощью. Ведь только этот странный и ставший давно чужим человек способен спасти ее старшую дочь Лили, похищенную безжалостным психопатом Чайдином...
Рейтинг
kinopoisk.ru: 7.195 (1665)
imdb.com: 6.50 (24 005)
MPAA: R - Лицам до 17 лет обязательно присутствие взрослого
Качество: HDTVRip
Формат: AVI
Видео кодек: XviD
Аудио кодек: AC3
Видео: XviD, 720x304 (2.35:1), 1471 kbps, 25 fps, 0,269 bpp
Аудио: AC3 / 5.1 / 48 kHz / 448 kbps / 16 bit

General
Complete name : D:\Торенты\Poslednij.Reid.HDTVRip.Generalfilm.avi
Format : AVI
Format/Info : Audio Video Interleave
File size : 1.77 GiB
Duration : 2h 11mn
Overall bit rate : 1 929 Kbps
Writing application : VirtualDubMod 1.5.10.3 | www.virtualdub-fr.org || (build 2550/release)
Writing library : VirtualDubMod build 2550/release

Video
ID : 0
Format : MPEG-4 Visual
Format profile : Advanced Simple@L5
Format settings, BVOP : 2
Format settings, QPel : No
Format settings, GMC : No warppoints
Format settings, Matrix : Default (H.263)
Codec ID : XVID
Codec ID/Hint : XviD
Duration : 2h 11mn
Bit rate : 1 471 Kbps
Width : 720 pixels
Height : 304 pixels
Display aspect ratio : 2.35:1
Frame rate : 25.000 fps
Color space : YUV
Chroma subsampling : 4:2:0
Bit depth : 8 bits
Scan type : Progressive
Compression mode : Lossy
Bits/(Pixel*Frame) : 0.269
Stream size : 1.35 GiB (76%)
Writing library : XviD 63

Audio
ID : 1
Format : AC-3
Format/Info : Audio Coding 3
Mode extension : CM (complete main)
Codec ID : 2000
Duration : 2h 11mn
Bit rate mode : Constant
Bit rate : 448 Kbps
Channel(s) : 6 channels
Channel positions : Front: L C R, Side: L R, LFE
Sampling rate : 48.0 KHz
Bit depth : 16 bits
Compression mode : Lossy
Stream size : 421 MiB (23%)
Alignment : Split accross interleaves
Interleave, duration : 40 ms (1.00 video frame)
Interleave, preload duration : 500 ms
piratbit.org



Скачать Последний рейд через торрент http://i66.fastpic.ru/big/2014/0710/b6/4ba3c44adecad6d5532901009f3956b6.jpg Скачать фильм Последний рейд через торрент бесплантно в хорошем качестве Описание: Дикий Запад, 1886 год. Старый Сэм, много лет назад бросивший свою семью и ушедший жить к индейцам племени апачей, возвращается в ... 10 10 6
Торрент: Зарегистрирован [2014-07-10 04:24] · скачан: 242 раз
Статус: √ проверено
Размер: 1.77 GB
Как cкачать? Как скачать Последний рейд через торрент | UTorrent

% Раздел Тема Автор DL S | L
Фильмы 2001-2005 [ 2.59 GB ] Последний рейд / The Missing [2003 HDTVRipАвторский Ворон Скачать
1 | 0

28-11-2019 20:33  

Отключить всю рекламу на сайте

    Дорогой пользователь! Огромная просьба, поблагодарите релизера, оцените раздачу и оставьте свои комментарий, если Вы скачали Последний рейд через торрент бесплатно! Внесите свою лепту в развитие PiratBit!
    Комментировать посты могут только пользователи прошедшие не сложную регистрацию
    Показать сообщения:    

    Последний рейд через торрент
    Скачать бесплатно Последний рейд
    Последний рейд скачать торрент
    Последний рейд смотреть онлайн
    Cкачать фильм Последний рейд бесплатно
    Последний рейд скачать торрент в хорошем качестве
    Последний рейд смотреть онлайн бесплатно в хорошем качестве


    Вы не можете начинать темы
    Вы не можете отвечать на сообщения
    Вы не можете редактировать свои сообщения
    Вы не можете удалять свои сообщения
    Вы не можете голосовать в опросах
    Вы не можете прикреплять файлы к сообщениям
    Вы можете скачивать файлы