1 сезон

1 сезон

iTunes

1

КиноПоиск HD

Кинопоиск HD

iTunes

13

1 сезон

RePack

30

Deluxe

ВАЖНО

ИГРА 18+

pack

RePack

MK11
pack

Легкие деньги

RePack

jed

RePack

fifa19

RePack

RDR2

RePack

NEED FOR SPEED™ PAYBACK

4 сезон

9 сезон

Бесстыжие 9 сезон

Все сериалы

все сериалы на PB.wtf

RePack

FAR CRY 5
  
Magnet ссылка

Добро пожаловать в Коллинвуд / Welcome to Collinwood (Энтони Руссо, Джо Руссо) [2002 г., комедия, криминал, DVDRip, Дубляж] piratbit.org

Добро пожаловать в Коллинвуд через торрент piratbit.org

Размер: 1.46 GB | Добавлен: 6 лет 9 мес. назад | Торрент скачан:122 раза
Скачать  

10-07-2014 15:47 Добро пожаловать в Коллинвуд Скачать торрент  

Добро пожаловать в Коллинвуд / Welcome to Collinwood
Год выпуска: 2002
Страна: США, Германия
Жанр: комедия, криминал
Продолжительность: 01:22:25
Перевод: Дубляж
Субтитры: русские (внешние *srt)

Режиссер: Энтони Руссо, Джо Руссо
Продюссер: Стивен Содерберг, Джордж Клуни, Бен Косгров
Сценарий: Энтони Руссо, Джо Руссо

В ролях: Уильям Х. Мэйси, Сэм Рокуэлл, Луис Гусман, Исайя Вашингтон, Майкл Джитер, Патришия Кларксон, Эндрю Дэволи, Джордж Клуни, Дженнифер Эспозито, Гэбриэл Юнион

Описание: У мелкого воришки Косимо появляется план, как разбогатеть, использовав информацию, полученную у сокамерника. Самое главное — поскорее выбраться из тюрьмы. Все, что нужно Косимо — это найти отчаявшегося парня, того, кто согласится за $15000 взять вину на себя и отсидеть от одного до трех лет в тюрьме.
Косимо поручает своей подружке Розалинде найти такого простака. Сидеть в тюрьме за преступление Косимо никто не хочет. Однако каждый делает вид, что найдет такого парня за «проценты». Пятеро парней, желающих что-нибудь урвать для себя, постоянно крутятся возле Розалинды.



Качество: DVDRip
Формат: AVI
Видео кодек: XviD
Аудио кодек: AC3
Видео: 720x304 (2.35:1), 25 fps ~ 1620 Kbps
Аудио#1: 48 KHz 6 ch ~ 448 Kb/s (русский)
Аудио#2: 48 KHz 6 ch ~ 448 Kb/s (английский)
скриншот   скриншот   скриншот   скриншот   скриншот  

Общее
Полное имя : Q:\TorF\Добро пожаловать в Коллинвуд\Добро пожаловать в Коллинвуд.avi
Формат : AVI
Формат/Информация : Audio Video Interleave
Размер файла : 1,46 Гбайт
Продолжительность : 1 ч. 22 м.
Общий поток : 2533 Кбит/сек
Программа кодирования : VirtualDubMod 1.5.10.2 (build 2542/release)
Библиотека кодирования : VirtualDubMod build 2542/release

Видео
Идентификатор : 0
Формат : MPEG-4 Visual
Профиль формата : Advanced Simple@L5
Параметр BVOP формата : 1
Параметр QPel формата : Нет
Параметр GMC формата : Без точки перехода
Параметр матрицы формата : Выборочная
Идентификатор кодека : XVID
Идентификатор кодека/Подсказка : XviD
Продолжительность : 1 ч. 22 м.
Битрейт : 1623 Кбит/сек
Ширина : 720 пикселей
Высота : 304 пикселя
Соотношение сторон : 2,35:1
Частота кадров : 25,000 кадров/сек
Цветовое пространство : YUV
Субдискретизация насыщенности : 4:2:0
Битовая глубина : 8 бит
Тип развёртки : Прогрессивная
Метод сжатия : С потерями
Бит/(Пиксели*Кадры) : 0.297
Размер потока : 957 Мбайт (64%)
Библиотека кодирования : XviD 1.2.1 (UTC 2008-12-04)

Аудио #1
Идентификатор : 1
Формат : AC-3
Формат/Информация : Audio Coding 3
Расширение режима : CM (complete main)
Идентификатор кодека : 2000
Продолжительность : 1 ч. 22 м.
Вид битрейта : Постоянный
Битрейт : 448 Кбит/сек
Каналы : 6 каналов
Расположение каналов : Front: L C R, Side: L R, LFE
Частота : 48,0 КГц
Битовая глубина : 16 бит
Метод сжатия : С потерями
Размер потока : 264 Мбайт (18%)
Выравнивание : Разделение по промежуткам
Продолжительность промежутка : 40 мс. (1,00 видеокадр)
Время предзагрузки промежутка : 500 мс.

Аудио #2
Идентификатор : 2
Формат : AC-3
Формат/Информация : Audio Coding 3
Расширение режима : CM (complete main)
Идентификатор кодека : 2000
Продолжительность : 1 ч. 22 м.
Вид битрейта : Постоянный
Битрейт : 448 Кбит/сек
Каналы : 6 каналов
Расположение каналов : Front: L C R, Side: L R, LFE
Частота : 48,0 КГц
Битовая глубина : 16 бит
Метод сжатия : С потерями
Размер потока : 264 Мбайт (18%)
Выравнивание : Разделение по промежуткам
Продолжительность промежутка : 40 мс. (1,00 видеокадр)
Время предзагрузки промежутка : 500 мс.


Добро пожаловать в Коллинвуд скачать торрент


piratbit.org



Скачать Добро пожаловать в Коллинвуд через торрент https://pic1.kartinco.top/images/61/bdj4a.jpg Скачать фильм Добро пожаловать в Коллинвуд через торрент бесплантно в хорошем качестве Описание: У мелкого воришки Косимо появляется план, как разбогатеть, использовав информацию, полученную у сокамерника. Самое главное — ... 10 10 2
Info! Золотая раздача, скачанное не засчитывается.
Торрент: Зарегистрирован [2014-07-10 15:47] · скачан: 122 раз
Статус: √ проверено
Размер: 1.46 GB
Как cкачать? Как скачать Добро пожаловать в Коллинвуд через торрент | UTorrent

% Раздел Тема Автор DL S | L
Фильмы 2001-2005 [ 1.45 GB ] Добро пожаловать в Коллинвуд / Welcome to Collinwood [2002 WEBRip] DUB koenig Скачать
1 | 0

28-11-2019 20:33  

Отключить всю рекламу на сайте

    Дорогой пользователь! Огромная просьба, поблагодарите релизера, оцените раздачу и оставьте свои комментарий, если Вы скачали Добро пожаловать в Коллинвуд через торрент бесплатно! Внесите свою лепту в развитие PiratBit!
    Комментировать посты могут только пользователи прошедшие не сложную регистрацию
    Показать сообщения:    

    Добро пожаловать в Коллинвуд через торрент
    Скачать бесплатно Добро пожаловать в Коллинвуд
    Добро пожаловать в Коллинвуд скачать торрент
    Добро пожаловать в Коллинвуд смотреть онлайн
    Cкачать фильм Добро пожаловать в Коллинвуд бесплатно
    Добро пожаловать в Коллинвуд скачать торрент в хорошем качестве
    Добро пожаловать в Коллинвуд смотреть онлайн бесплатно в хорошем качестве


    Вы не можете начинать темы
    Вы не можете отвечать на сообщения
    Вы не можете редактировать свои сообщения
    Вы не можете удалять свои сообщения
    Вы не можете голосовать в опросах
    Вы не можете прикреплять файлы к сообщениям
    Вы можете скачивать файлы