1 сезон

1 сезон

iTunes

1

КиноПоиск HD

Кинопоиск HD

iTunes

13

1 сезон

RePack

30

Deluxe

ВАЖНО

ИГРА 18+

pack

RePack

MK11
pack

Легкие деньги

RePack

jed

RePack

fifa19

RePack

RDR2

RePack

NEED FOR SPEED™ PAYBACK

4 сезон

9 сезон

Бесстыжие 9 сезон

Все сериалы

все сериалы на PB.wtf

RePack

FAR CRY 5
  
Magnet ссылка

Смертельное наследство / Наследство / In Her Mother's Footsteps (Фархад Манн) [2006г., триллер, драма, детектив, HDTVRip, Профессиональный Многоголосый] piratbit.org

Смертельное наследство через торрент piratbit.org

Размер: 1.46 GB | Добавлен: 6 лет 9 мес. назад | Торрент скачан:157 раз
Скачать  

15-07-2014 01:37 Смертельное наследство Скачать торрент  

Смертельное наследство / Наследство / In Her Mother's Footsteps
Год выпуска: 2006
Страна: США, Канада
Жанр: триллер, драма, детектив
Продолжительность: 01:30:18
Перевод: Профессиональный Многоголосый
Субтитры: нет

Режиссер: Шарль Немес
Продюссер: Себастьен Фечнер, Николас Ваннье
Сценарий: Клеман Мишель, Себастьен Фечнер

Премьера в мире: 2 сентября 2006, ...

зрителям, достигшим 16 лет



В ролях: Эмма Колфилд,Дэвид Орт,Матрея Федор,Трэйси Уотерхаус,Дэрил Шаттлворф,Эдриан Дорваль,Джоди Томпсон,МакКензи Грэй,Genevieve Sirois,Патти Аллан
...
Описание: У Кейт Нолан есть все, о чем только можно мечтать: заботливый молодой муж, милая дочь и успешная карьера. После смерти отца ей достаётся огромное наследство: викторианский особняк и 11 миллионов долларов. Счастливая семья переезжает в новый дом, не зная, что это начало настоящего кошмара. Кейт обнаруживает у себя дар ясновидения, который, через жестокие видения и встречи с призраками, помогает ей раскрыть тайну гибели своей матери.

Качество: HDTVRip
Формат: AVI
Видео кодек: XviD
Аудио кодек: AC3
Видео: 720x400 (1.80:1), 25 fps, XviD build 73 ~1850 kbps avg, 0.26 bit/pixel
Аудио#1: 48 kHz, AC3 Dolby Digital, 3/2 (L,C,R,l,r) + LFE ch, ~448.00 kbps avg

Релиз от: Deadmauvlad
скриншот   скриншот   скриншот   скриншот   скриншот   скриншот  

Код:

Общее
Полное имя                               : C:\Users\DeadmauVlad\Desktop\In.Her.Mother's.Footsteps.2006.P.HDTVRip.Deadmauvlad.avi
Формат                                   : AVI
Формат/Информация                        : Audio Video Interleave
Размер файла                             : 1,46 Гбайт
Продолжительность                        : 1 ч. 30 м.
Общий поток                              : 2308 Кбит/сек
Название фильма                          : In.Her.Mother's.Footsteps.2006.P.HDTVRip.Deadmauvlad
Режиссёр                                 : Deadmauvlad
Жанр                                     : Триллер, Драма, Мелодрама
Программа кодирования                    : VirtualDubMod 1.5.10.3 | www.virtualdub-fr.org || (build 2550/release)
Формат оригинала/Имя                     : Фильм
Правообладатель                          : Goldenshara

Видео
Идентификатор                            : 0
Формат                                   : MPEG-4 Visual
Профиль формата                          : Advanced Simple@L5
Параметр BVOP формата                    : 1
Параметр QPel формата                    : Нет
Параметр GMC формата                     : Без точки перехода
Параметр матрицы формата                 : Выборочная
Идентификатор кодека                     : XVID
Идентификатор кодека/Подсказка           : XviD
Продолжительность                        : 1 ч. 30 м.
Битрейт                                  : 1850 Кбит/сек
Ширина                                   : 720 пикселей
Высота                                   : 400 пикселей
Соотношение сторон                       : 16:9
Частота кадров                           : 25,000 кадров/сек
Цветовое пространство                    : YUV
Субдискретизация насыщенности            : 4:2:0
Битовая глубина                          : 8 бит
Тип развёртки                            : Прогрессивная
Метод сжатия                             : С потерями
Бит/(Пиксели*Кадры)                      : 0.257
Размер потока                            : 1,17 Гбайт (80%)
Библиотека кодирования                   : XviD 73

Аудио
Идентификатор                            : 1
Формат                                   : AC-3
Формат/Информация                        : Audio Coding 3
Расширение режима                        : CM (complete main)
Параметр Endianness формата              : Big
Идентификатор кодека                     : 2000
Продолжительность                        : 1 ч. 30 м.
Вид битрейта                             : Постоянный
Битрейт                                  : 448 Кбит/сек
Каналы                                   : 6 каналов
Расположение каналов                     : Front: L C R, Side: L R, LFE
Частота                                  : 48,0 КГц
Битовая глубина                          : 16 бит
Метод сжатия                             : С потерями
Размер потока                            : 289 Мбайт (19%)
Выравнивание                             : Разделение по промежуткам
Продолжительность промежутка             : 40  мс. (1,00 видеокадр)
Время предзагрузки промежутка            : 500  мс.

.

piratbit.org



Скачать Смертельное наследство через торрент https://pic1.kartinco.top/images/61/r15ar.jpg Скачать фильм Смертельное наследство через торрент бесплантно в хорошем качестве Описание: У Кейт Нолан есть все, о чем только можно мечтать: заботливый молодой муж, милая дочь и успешная карьера. После смерти отца ей ... 10 10 4
Info! Золотая раздача, скачанное не засчитывается.
Торрент: Зарегистрирован [2014-07-15 01:37] · скачан: 157 раз
Статус: √ проверено
Размер: 1.46 GB
Как cкачать? Как скачать Смертельное наследство через торрент | UTorrent



Последний раз редактировалось: Se7ven95 (2014-07-15 01:54), всего редактировалось 1 раз

28-11-2019 20:33  

Отключить всю рекламу на сайте

    Дорогой пользователь! Огромная просьба, поблагодарите релизера, оцените раздачу и оставьте свои комментарий, если Вы скачали Смертельное наследство через торрент бесплатно! Внесите свою лепту в развитие PiratBit!
    Комментировать посты могут только пользователи прошедшие не сложную регистрацию
    Показать сообщения:    

    Смертельное наследство через торрент
    Скачать бесплатно Смертельное наследство
    Смертельное наследство скачать торрент
    Смертельное наследство смотреть онлайн
    Cкачать фильм Смертельное наследство бесплатно
    Смертельное наследство скачать торрент в хорошем качестве
    Смертельное наследство смотреть онлайн бесплатно в хорошем качестве


    Вы не можете начинать темы
    Вы не можете отвечать на сообщения
    Вы не можете редактировать свои сообщения
    Вы не можете удалять свои сообщения
    Вы не можете голосовать в опросах
    Вы не можете прикреплять файлы к сообщениям
    Вы можете скачивать файлы