2 сезон

iTunes

MVO

1

2 сезон

iTunes

iTunes

1 сезон

RePack

30

Ultimate

ВАЖНО

ИГРА 18+

pack

RePack

MK11
pack

Легкие деньги

RePack

jed

RePack

fifa19

RePack

RDR2

RePack

NEED FOR SPEED™ PAYBACK

4 сезон

9 сезон

Бесстыжие 9 сезон

Все сериалы

все сериалы на PB.wtf

RePack

FAR CRY 5

Anonymous, добрый день, мы не успеваем собрать деньги на оплату серверов за декабрь и январь, помогите нам пожалуйста в это трудное время. В качестве благодарности мы отключим Вам всю рекламу на сайте (укажите свой ник в строку Ваше имя)!

×
  
Magnet ссылка

Матч (Андрей Малюков) [2012 г., Драма, спорт, BDRip-AVC] piratbit.org

Матч через торрент piratbit.org

Размер: 2.18 GB | Добавлен: 6 лет 5 мес. назад | Торрент скачан:201 раз
Скачать  

28-07-2014 08:11 Матч Скачать торрент  

Матч
Год выпуска: 2012
Страна: Россия, Украина / Рекун-синема
Жанр: Драма, спорт
Продолжительность: 01:57:36
Субтитры: Нет

Режиссер: Андрей Малюков



В ролях: Сергей Безруков, Елизавета Боярская, Эдуард Безродный, Екатерина Климова, Дирк Мартенс, Александр Крыжановский, Александр Кобзарь, Сергей Романович, Игорь Гнездилов, Никита Тезин

Описание: 1942 год. Николай Раневич, вратарь и звезда киевского «Динамо», теряет самое дорогое - свободу, любимую девушку Анну и возможность играть в футбол. Анна спасает Николая из плена, но теперь они не могут быть вместе... Немцы устраивают чемпионат по футболу между местными командами и сборной Вермахта. Раневич собирает друзей и вновь выходит на поле играть за свою честь, за любовь, за Родину!

Качество: BDRip-AVC
Формат: MKV
Видео кодек: H.264
Аудио кодек: AC3
Видео: 1044x564 (1,85:1), 25,000 fps, 2206 kbps, 0.150 bit/pixel
Аудио: 48 kHz, AC3 Dolby Digital, 3/2 (L,C,R,l,r) + LFE ch, 448.00 kbps

Релиз группы:
Автор рипа: potroks

Общее
Уникальный идентификатор : 245496672230395766878336403529428703709 (0xB8B0F07159C4A1188D2D456A5F8119DD)
Полное имя : Match.2012.RUS.BDRip.x264.-HELLYWOOD.mkv
Формат : Matroska
Версия формата : Version 4 / Version 2
Размер файла : 2,18 Гбайт
Продолжительность : 1 ч. 57 м.
Общий поток : 2654 Кбит/сек
Название фильма : Матч (2012) - HELLYWOOD
Дата кодирования : UTC 2014-07-28 03:15:40
Программа кодирования : mkvmerge v5.9.0 ('On The Loose') built on Dec 15 2012 16:39:58
Библиотека кодирования : libebml v1.3.0 + libmatroska v1.4.0

Видео
Идентификатор : 1
Формат : AVC
Формат/Информация : Advanced Video Codec
Профиль формата : High@L4.1
Параметр CABAC формата : Да
Параметр ReFrames формата : 10 кадров
Режим смешивания : Header stripping
Идентификатор кодека : V_MPEG4/ISO/AVC
Продолжительность : 1 ч. 57 м.
Битрейт : 2206 Кбит/сек
Ширина : 1044 пикселя
Высота : 564 пикселя
Соотношение сторон : 1,85:1
Режим частоты кадров : Постоянный
Частота кадров : 25,000 кадров/сек
Цветовое пространство : YUV
Субдискретизация насыщенности : 4:2:0
Битовая глубина : 8 бит
Тип развёртки : Прогрессивная
Бит/(Пиксели*Кадры) : 0.150
Размер потока : 1,77 Гбайт (81%)
Заголовок : potroks
Библиотека кодирования : x264 core 130 r2273 b3065e6
Настройки программы : cabac=1 / ref=10 / deblock=1:-2:-1 / analyse=0x3:0x133 / me=umh / subme=11 / psy=1 / psy_rd=0.99:0.01 / mixed_ref=1 / me_range=32 / chroma_me=1 / trellis=2 / 8x8dct=1 / cqm=0 / deadzone=21,11 / fast_pskip=0 / chroma_qp_offset=-3 / threads=9 / lookahead_threads=2 / sliced_threads=0 / nr=0 / decimate=0 / interlaced=0 / bluray_compat=0 / constrained_intra=0 / bframes=11 / b_pyramid=2 / b_adapt=2 / b_bias=0 / direct=3 / weightb=1 / open_gop=0 / weightp=2 / keyint=250 / keyint_min=23 / scenecut=40 / intra_refresh=0 / rc=2pass / mbtree=0 / bitrate=2206 / ratetol=1.0 / qcomp=0.70 / qpmin=0 / qpmax=69 / qpstep=4 / cplxblur=20.0 / qblur=0.5 / ip_ratio=1.35 / pb_ratio=1.25 / aq=1:0.80
Язык : English
Default : Да
Forced : Нет

Аудио
Идентификатор : 2
Формат : AC-3
Формат/Информация : Audio Coding 3
Расширение режима : CM (complete main)
Параметр Endianness формата : Big
Режим смешивания : Header stripping
Идентификатор кодека : A_AC3
Продолжительность : 1 ч. 57 м.
Вид битрейта : Постоянный
Битрейт : 448 Кбит/сек
Каналы : 6 каналов
Расположение каналов : Front: L C R, Side: L R, LFE
Частота : 48,0 КГц
Битовая глубина : 16 бит
Метод сжатия : С потерями
Размер потока : 377 Мбайт (17%)
Заголовок : Original | DD 5.1 @ 448 kbps - Blu-Ray
Язык : Russian
Default : Да
Forced : Нет

Меню
00:00:00.000 : en:Chapter 01
00:08:50.480 : en:Chapter 02
00:13:58.440 : en:Chapter 03
00:17:52.760 : en:Chapter 04
00:22:04.359 : en:Chapter 05
00:30:00.520 : en:Chapter 06
00:39:32.680 : en:Chapter 07
00:46:36.640 : en:Chapter 08
00:52:03.320 : en:Chapter 09
00:58:34.640 : en:Chapter 10
01:04:37.600 : en:Chapter 11
01:10:23.840 : en:Chapter 12
01:16:03.880 : en:Chapter 13
01:25:24.640 : en:Chapter 14
01:32:36.760 : en:Chapter 15
01:38:47.479 : en:Chapter 16
01:57:38.040 : en:Chapter 17

piratbit.org



Скачать Матч через торрент http://pic.kartinco.top/new/img/2014-07/28/oczj2gn98rza54oe348bwodhz.png Скачать фильм Матч через торрент бесплантно в хорошем качестве Описание: 1942 год. Николай Раневич, вратарь и звезда киевского «Динамо», теряет самое дорогое - свободу, любимую девушку Анну и ... 9.8 10 8
Info! Золотая раздача, скачанное не засчитывается.
Торрент: Зарегистрирован [2014-07-28 08:11] · скачан: 201 раз
Статус: √ проверено
Размер: 2.18 GB
Как cкачать? Как скачать Матч через торрент | UTorrent

% Раздел Тема Автор DL S | L
Наши фильмы 2012 [ 1.46 GB ] Матч [2012 DVDRip] |лицензия| -=Cherry=- Скачать
1 | 0
Лига Чемпионов [ 1.48 GB ] Лига Чемпионов 2014-2015 / 1/4 финала / Ответный матч / Бавария Мюнхен — Порту / НТВ+ [2015 Футбол HDRip] МИХА~ Скачать
1 | 0
Лига Чемпионов [ 1.5 GB ] Лига Чемпионов 2014-2015 / 1/4 финала / Первый матч / ПСЖ - Барселона / НТВ+ [2015 Футбол HDRip] МИХА~ Скачать
1 | 0
Лига Чемпионов [ 1.47 GB ] Лига Чемпионов 2014-2015 / 1/4 финала / Первый матч / Порту — Бавария Мюнхен / НТВ+ [2015 Футбол HDRip] МИХА~ Скачать
1 | 0
Лига Чемпионов [ 1.5 GB ] Лига Чемпионов 2014-2015 / 1/4 финала / Первый матч / Атлетико — Реал Мадрид / НТВ+ [2015 Футбол HDRip] МИХА~ Скачать
1 | 0
Лига Чемпионов [ 1.52 GB ] Лига Чемпионов 2014-2015 / 1/4 финала / Первый матч / Ювентус — Монако () / НТВ+ [2015 Футбол HDRip] МИХА~ Скачать
1 | 0
Лига Чемпионов [ 1.46 GB ] Лига Чемпионов 2014-2015 / 1/8 финала / Ответный матч / Боруссия — Ювентус / НТВ+ [2015 Футбол HDRip] МИХА~ Скачать
1 | 0

28-11-2019 20:33  

Отключить всю рекламу на сайте

    Дорогой пользователь! Огромная просьба, поблагодарите релизера, оцените раздачу и оставьте свои комментарий, если Вы скачали Матч через торрент бесплатно! Внесите свою лепту в развитие PiratBit!
    Комментировать посты могут только пользователи прошедшие не сложную регистрацию
    Показать сообщения:    

    Матч через торрент
    Скачать бесплатно Матч
    Матч скачать торрент
    Матч смотреть онлайн
    Cкачать фильм Матч бесплатно
    Матч скачать торрент в хорошем качестве
    Матч смотреть онлайн бесплатно в хорошем качестве


    Вы не можете начинать темы
    Вы не можете отвечать на сообщения
    Вы не можете редактировать свои сообщения
    Вы не можете удалять свои сообщения
    Вы не можете голосовать в опросах
    Вы не можете прикреплять файлы к сообщениям
    Вы можете скачивать файлы