1 сезон

iTunes

iTunes

1

Line

MVO

iTunes

13

1 сезон

RePack

30

Deluxe

pack

Лицензия

ВАЖНО

ИГРА 18+

pack

RePack

MK11

RePack

jed

RePack

fifa19

RePack

RDR2

RePack

NEED FOR SPEED™ PAYBACK

4 сезон

9 сезон

Бесстыжие 9 сезон

Все сериалы

все сериалы на PB.wtf

RePack

FAR CRY 5

Anonymous, добрый день, мы катастрофически не успеваем собрать деньги на оплату серверов, помогите нам пожалуйста 5,10,15р., для нас важна любая помощь . В качестве благодарности мы отключим Вам всю рекламу на сайте (укажите свой ник в строку Ваше имя)!

×
  
Magnet ссылка

Расчет / The Clearing (Питер Жан Брюгге / Pieter Jan Brugge) [2004, США, Германия, триллер, драма, криминал, BDRip, MVO] piratbit.org

Расчет через торрент piratbit.org

Размер: 1.45 GB | Добавлен: 7 лет назад | Торрент скачан:74 раза
Скачать  

28-07-2014 10:39 Расчет Скачать торрент  

Расчет / The Clearing
«Вы по настоящему начинаете ценить то, что вы имеете, лишь когда теряете это»


  • Год выпуска: 2004
  • Страна: США, Германия
  • Жанр: триллер, драма, криминал
  • Продолжительность: 01:34:26
  • Перевод: Профессиональный многоголосый закадровый)

  • Режиссер: Питер Жан Брюгге / Pieter Jan Brugge
  • В ролях:

    Роберт Редфорд (Wayne Hayes), Хелен Миррен (Eileen Hayes), Уиллем Дефо (Arnold Mack), Алессандро Нивола (Tim Hayes), Мэтт Крэвен (Agent Ray Fuller), Мелисса Сейджмиллер (Jill Hayes), Венди Крюсон (Louise Miller), Ларри Пайн (Tom Finch), Дайана Скаруид (Eva Finch), Элизабет Руссо (Cindy Mack), Гвен МакГи (Agent Kathleen Duggan), Сара Коскофф (Lane Hayes)

  • Описание:
    Уэйн и Эйлин Хэйес - образцовая американская семья. У них двое прекрасных детей и вполне успешный бизнес, который они поднимали вместе с нуля. Но жизнь уготовила супружеской паре суровое испытание. Однажды Уэйна похищают. Человек, спрятавший его в лесу, обычный обыватель Арнольд Мэк, находящийся на грани отчаяния и уставший от безденежья и нищеты, решил получить большой выкуп...
  • Рейтинг:



  • Качество: BDRip
  • Формат: :AVI
  • Видео кодек: XviD
  • Аудио кодек: AC3
  • Видео: 704x384 (16:9), 1744 kbps, 23,976 fps, 0,269 bpp
  • Аудио: 5.1 / 48 kHz / 448 kbps / 16 bit
  • Релиз от: GEKADOL

    Код:

    General
    Complete name                            : D:\Фильмы\Raschet.2004.RUS.BDRip.XviD.AC3.-HQCLUB.avi
    Format                                   : AVI
    Format/Info                              : Audio Video Interleave
    File size                                : 1.45 GiB
    Duration                                 : 1h 34mn
    Overall bit rate                         : 2 202 Kbps
    Movie name                               : Расчет / The Clearing (2004) BDRip
    Director                                 : sociolog_melvas
    Genre                                    : триллер, драма, криминал
    Writing application                      : VirtualDubMod 1.5.10.2 (build 2540/release)
    Copyright                                : http://hqclub.net/
    Comment                                  : 20.06.2014

    Video
    ID                                       : 0
    Format                                   : MPEG-4 Visual
    Format profile                           : Advanced Simple@L5
    Format settings, BVOP                    : 1
    Format settings, QPel                    : No
    Format settings, GMC                     : No warppoints
    Format settings, Matrix                  : Custom
    Codec ID                                 : XVID
    Codec ID/Hint                            : XviD
    Duration                                 : 1h 34mn
    Bit rate                                 : 1 744 Kbps
    Width                                    : 704 pixels
    Height                                   : 384 pixels
    Display aspect ratio                     : 16:9
    Frame rate                               : 23.976 fps
    Color space                              : YUV
    Chroma subsampling                       : 4:2:0
    Bit depth                                : 8 bits
    Scan type                                : Progressive
    Compression mode                         : Lossy
    Bits/(Pixel*Frame)                       : 0.269
    Stream size                              : 1.15 GiB (79%)
    Writing library                          : XviD 65

    Audio
    ID                                       : 1
    Format                                   : AC-3
    Format/Info                              : Audio Coding 3
    Mode extension                           : CM (complete main)
    Codec ID                                 : 2000
    Duration                                 : 1h 34mn
    Bit rate mode                            : Constant
    Bit rate                                 : 448 Kbps
    Channel(s)                               : 6 channels
    Channel positions                        : Front: L C R, Side: L R, LFE
    Sampling rate                            : 48.0 KHz
    Bit depth                                : 16 bits
    Compression mode                         : Lossy
    Stream size                              : 303 MiB (20%)
    Alignment                                : Split accross interleaves
    Interleave, duration                     : 42 ms (1.00 video frame)
    Interleave, preload duration             : 500 ms


    Скриншоты:


    piratbit.org



  • Скачать Расчет через торрент http://i68.fastpic.ru/big/2014/0728/9e/edbadae0410938c5f8c49d02f5092f9e.jpg Скачать фильм Расчет через торрент бесплантно в хорошем качестве Описание: Уэйн и Эйлин Хэйес - образцовая американская семья. У них двое прекрасных детей и вполне успешный бизнес, который они поднимали ... 10 10 3
    Торрент: Зарегистрирован [2014-07-28 10:39] · скачан: 74 раз
    Статус: √ проверено
    Размер: 1.45 GB
    Как cкачать? Как скачать Расчет через торрент | UTorrent

    % Раздел Тема Автор DL S | L
    Фильмы [HD 720p, 1080p] (Хороший звук DUB, MVO) [ 14.07 GB ] Расчёт / The Clearing [2004 BDRip 1080p by msltel] MVO 2 x AVO msltel Скачать
    1 | 0
    Фильмы [HD 720p, 1080p] (Хороший звук DUB, MVO) [ 5.34 GB ] Расчёт / The Clearing [2004 BDRip 720p by msltel] MVO 2 x AVO msltel Скачать
    1 | 0

    28-11-2019 20:33  

    Отключить всю рекламу на сайте

    29-07-2014 00:12 Расчет Скачать торрент  

    Соломон Немни писал(а):

    Что то поискал глазами сэмпл, дабы по нему вспомнить, смотерл я этот старый фильм или нет. Не нашёл. Завтра пойду к окулисту.

    С лева от моргающей картинки)
    piratbit.org



      Дорогой пользователь! Огромная просьба, поблагодарите релизера, оцените раздачу и оставьте свои комментарий, если Вы скачали Расчет через торрент бесплатно! Внесите свою лепту в развитие PiratBit!
      Комментировать посты могут только пользователи прошедшие не сложную регистрацию
      Показать сообщения:    

      Расчет через торрент
      Скачать бесплатно Расчет
      Расчет скачать торрент
      Расчет смотреть онлайн
      Cкачать фильм Расчет бесплатно
      Расчет скачать торрент в хорошем качестве
      Расчет смотреть онлайн бесплатно в хорошем качестве


      Вы не можете начинать темы
      Вы не можете отвечать на сообщения
      Вы не можете редактировать свои сообщения
      Вы не можете удалять свои сообщения
      Вы не можете голосовать в опросах
      Вы не можете прикреплять файлы к сообщениям
      Вы можете скачивать файлы