Всегда рабочее зеркало без VPN и Proxy просто перед .vidak.icu напиши любое слово или цифру, Пример http://wug.vidak.icu

>

7.4

iTunes

7.4

2 сезон

6.6

iTunes

1

7.4

2 сезон

7.2

iTunes

6.0

MVO

13

6.1

iTunes

8.3

Пиратка

30

ULTIMATE

pack

9.9

Лицензия

ВАЖНО

ИГРА 18+

pack

7.3

RePack

MK11

7.7

RePack

jed

7.8

RePack

fifa19

8.5

RePack

RDR2

RePack

NEED FOR SPEED™ PAYBACK

1 сезон

9 сезон

Бесстыжие 9 сезон

Все сериалы

все сериалы на PB.wtf

RePack

FAR CRY 5

Anonymous, добрый вечер, мы катастрофически не успеваем собрать деньги на оплату серверов, помогите нам пожалуйста 5,10,15р., для нас важна любая помощь . В качестве благодарности мы отключим Вам всю рекламу на сайте (укажите свой ник в строку Ваше имя)!

×
  
Magnet ссылка

ВАЛЛ·И / WALL·E (Эндрю Стэнтон) [2008 г., мультфильм, фантастика, мелодрама, приключения, BDRip 720p, Дубляж, Лицензия] 60 fps piratbit.org

ВАЛЛ·И через торрент piratbit.org

Размер: 4.12 GB | Добавлен: 7 лет 5 мес. назад | Торрент скачан:736 раз
Смотреть онлайн ВАЛЛ·И | Скачать    Ребята, помогите собрать деньги на оплату серверов!!!

30-07-2014 17:20 ВАЛЛ·И Скачать торрент  

ВАЛЛ·И / WALL·E Год выпуска: 2008
Страна: США
Жанр: мультфильм, фантастика, мелодрама, приключения
Продолжительность: 01:37:20




Перевод: Дубляж, Лицензия
Субтитры: Russian, English




Режиссер: Эндрю Стэнтон









В ролях: Бен Бертт, Элисса Найт, Джефф Гарлин, Фред Уиллард, Джон Ратценбергер, Кэти Нэджими, Сигурни Уивер.




Описание: Робот ВАЛЛ·И из года в год прилежно трудится на опустевшей Земле, очищая нашу планету от гор мусора, которые оставили после себя улетевшие в космос люди. Он и не представляет, что совсем скоро произойдут невероятные события, благодаря которым он встретит друзей, поднимется к звездам и даже сумеет изменить к лучшему своих бывших хозяев, совсем позабывших родную Землю.




Качество: BDRip 720p
Формат: MKV
Видео кодек: AVC
Аудио кодек: AC3
Видео: AVC, 1280x536 (2.35), 59.940 fps, 5 167 Kbp
Аудио 1: AC-3, 48.0 KHz, 6 ch, 448 Kbps, CBR (Дубляж)
Аудио 2: AC-3, 48.0 KHz, 6 ch, 448 Kbps, CBR (English)




скриншот   скриншот   скриншот  

скриншот   скриншот  

скриншот  
General
Unique ID : 191717708987175490422515255425400498725 (0x903B7CD7561AEBD09D307C04EBAEEA25)
Complete name : D:\Моя музыка\WALL.E.(2008).BDRip.720p.[envy].[60fps].mkv
Format : Matroska
Format version : Version 2
File size : 4.12 GiB
Duration : 1h 37mn
Overall bit rate : 6 055 Kbps
Movie name : ВАЛЛ.И.(2008).BDRip.720p.[envy].[60fps]
Encoded date : UTC 2014-05-22 11:09:30
Writing application : mkvmerge v5.8.0 ('No Sleep / Pillow') built on Sep 2 2012 15:37:04
Writing library : libebml v1.2.3 + libmatroska v1.3.0

Video
ID : 1
Format : AVC
Format/Info : Advanced Video Codec
Format profile : High@L4.1
Format settings, CABAC : Yes
Format settings, ReFrames : 9 frames
Codec ID : V_MPEG4/ISO/AVC
Duration : 1h 37mn
Bit rate : 5 167 Kbps
Width : 1 280 pixels
Height : 536 pixels
Display aspect ratio : 2.40:1
Frame rate mode : Constant
Frame rate : 59.880 fps
Original frame rate : 59.940 fps
Color space : YUV
Chroma subsampling : 4:2:0
Bit depth : 8 bits
Scan type : Progressive
Bits/(Pixel*Frame) : 0.126
Stream size : 3.43 GiB (83%)
Title : ВАЛЛ.И.(2008).BDRip.720p.[envy].[60fps]
Writing library : x264 core 130 r2273 b3065e6
Encoding settings : cabac=1 / ref=9 / deblock=1:-2:-2 / analyse=0x3:0x133 / me=umh / subme=11 / psy=1 / psy_rd=1.00:0.10 / mixed_ref=1 / me_range=32 / chroma_me=1 / trellis=2 / 8x8dct=1 / cqm=0 / deadzone=21,11 / fast_pskip=0 / chroma_qp_offset=-3 / threads=12 / lookahead_threads=1 / sliced_threads=0 / nr=0 / decimate=1 / interlaced=0 / bluray_compat=0 / constrained_intra=0 / bframes=5 / b_pyramid=2 / b_adapt=2 / b_bias=0 / direct=3 / weightb=1 / open_gop=0 / weightp=2 / keyint=250 / keyint_min=25 / scenecut=40 / intra_refresh=0 / rc=2pass / mbtree=0 / bitrate=5167 / ratetol=1.0 / qcomp=0.60 / qpmin=0 / qpmax=69 / qpstep=4 / cplxblur=20.0 / qblur=0.5 / ip_ratio=1.40 / pb_ratio=1.30 / aq=1:1.00
Language : English
Default : Yes
Forced : No

Audio #1
ID : 2
Format : AC-3
Format/Info : Audio Coding 3
Mode extension : CM (complete main)
Format settings, Endianness : Big
Codec ID : A_AC3
Duration : 1h 37mn
Bit rate mode : Constant
Bit rate : 448 Kbps
Channel(s) : 6 channels
Channel positions : Front: L C R, Side: L R, LFE
Sampling rate : 48.0 KHz
Bit depth : 16 bits
Compression mode : Lossy
Stream size : 312 MiB (7%)
Title : Dub
Language : Russian
Default : Yes
Forced : No

Audio #2
ID : 3
Format : AC-3
Format/Info : Audio Coding 3
Mode extension : CM (complete main)
Format settings, Endianness : Big
Codec ID : A_AC3
Duration : 1h 37mn
Bit rate mode : Constant
Bit rate : 448 Kbps
Channel(s) : 6 channels
Channel positions : Front: L C R, Side: L R, LFE
Sampling rate : 48.0 KHz
Bit depth : 16 bits
Compression mode : Lossy
Stream size : 312 MiB (7%)
Title : Eng
Language : English
Default : No
Forced : No

Text #1
ID : 4
Format : UTF-8
Codec ID : S_TEXT/UTF8
Codec ID/Info : UTF-8 Plain Text
Title : full
Language : Russian
Default : No
Forced : No

Text #2
ID : 5
Format : UTF-8
Codec ID : S_TEXT/UTF8
Codec ID/Info : UTF-8 Plain Text
Title : full
Language : English
Default : No
Forced : No
piratbit.org



Скачать ВАЛЛ·И через торрент http://i68.fastpic.ru/big/2014/0730/0e/598093967079c18d45c8f5367007840e.png Скачать, смотреть онлайн ВАЛЛ·И бесплантно в хорошем качестве Описание: Робот ВАЛЛ·И из года в год прилежно трудится на опустевшей Земле, очищая нашу планету от гор мусора, которые оставили после себя ... 10 10 16
Info! Золотая раздача, скачанное не засчитывается.
Торрент: Зарегистрирован [2014-07-30 17:20] · скачан: 736 раз
Статус: √ проверено
Размер: 4.12 GB
Как cкачать? Как скачать ВАЛЛ·И через торрент | UTorrent

% Раздел Тема Автор DL S | L
Мультфильмы (48-60 fps) [ 2.93 GB ] ВАЛЛ·И / WALL-E [2008 мультфильм BDRip-AVC 60fps Dub] от R.G. HD-Films Tiberiumsun69 Скачать
26 | 0

28-11-2019 20:33  

Отключить всю рекламу на сайте

    Дорогой пользователь! Огромная просьба, поблагодарите релизера, оцените раздачу и оставьте свои комментарий, если Вы скачали ВАЛЛ·И через торрент бесплатно!
    Комментировать посты могут только пользователи прошедшие не сложную регистрацию
    Показать сообщения:    

    ВАЛЛ·И через торрент
    Скачать бесплатно ВАЛЛ·И
    ВАЛЛ·И скачать торрент
    ВАЛЛ·И смотреть онлайн
    Cкачать фильм ВАЛЛ·И бесплатно
    ВАЛЛ·И скачать торрент в хорошем качестве
    ВАЛЛ·И смотреть онлайн бесплатно в хорошем качестве


    Вы не можете начинать темы
    Вы не можете отвечать на сообщения
    Вы не можете редактировать свои сообщения
    Вы не можете удалять свои сообщения
    Вы не можете голосовать в опросах
    Вы не можете прикреплять файлы к сообщениям
    Вы можете скачивать файлы