2 сезон

iTunes

MVO

1

2 сезон

iTunes

iTunes

1 сезон

RePack

30

Новинка

ВАЖНО

ИГРА 18+

pack

RePack

MK11
pack

Легкие деньги

RePack

jed

RePack

fifa19

RePack

RDR2

RePack

NEED FOR SPEED™ PAYBACK

4 сезон

9 сезон

Бесстыжие 9 сезон

Все сериалы

все сериалы на PB.wtf

RePack

FAR CRY 5

Anonymous, добрый вечер, мы не успеваем собрать деньги на оплату серверов за декабрь и январь, помогите нам пожалуйста в это трудное время. В качестве благодарности мы отключим Вам всю рекламу на сайте (укажите свой ник в строку Ваше имя)!

×
  
Magnet ссылка

Испанец (Александр Цацуев) [2012, Россия, драма, DVDRip] piratbit.org

Испанец через торрент piratbit.org

Размер: 1.46 GB | Добавлен: 6 лет 5 мес. назад | Торрент скачан:160 раз
Скачать  

05-08-2014 17:13 Испанец Скачать торрент  

Испанец


Год выпуска: 2012
Страна: Россия
Жанр:драма
Продолжительность:01:29:38
Перевод:Не требуется
Режиссер:Александр Цацуев

  • В ролях:

    Сергей Шнырев, Мария Баева (Маша современная), Александр Пашутин, Артем Панчик, Владимир Панчик, Юлия Галкина, Елена Шилова (Мария), Тимофей Каратаев (Иван), Сергей Малюгов, Олег Харитонов

  • Описание:
    Эта история, основанная на реальных событиях, рассказывает о жизни знаменитого испанского летчика Хосе Фернандеса. В конце тридцатых годов двадцатого века он приехал в СССР для службы в Красной Армии. Бравому летчику удается пройти всю Вторую мировую войну и остаться в живых.
    На непростом пути войны Хосе встречает русскую девушку Машу, с которой у него завязывается долгий роман. Ради своей любви летчик решает остаться в Советском Союзе. Но в то время интернациональные браки не слишком приветствовались властями. Они вынуждают Хосе уехать в Испанию, даже несмотря на то, что его возлюбленная ждет ребенка. Но через много лет внуку Хосе, ставшему авиамехаником, суждено будет участвовать в продолжении истории его предка.


      Качество: DVDRip
      Формат:AVI
      Видео кодек: XviD
      Аудио кодек:AC3
      Видео: 720x304 (2.35:1), 2124 kbps, 25 fps
      Аудио: 2.0/ 48 kHz/ 192 kbps/ AC3


    Код:

    General
    Complete name                            : D:\Торенты\Ispanets.2012.O.DVDRip_[x].avi
    Format                                   : AVI
    Format/Info                              : Audio Video Interleave
    File size                                : 1.46 GiB
    Duration                                 : 1h 29mn
    Overall bit rate                         : 2 326 Kbps
    Writing application                      : VirtualDubMod 1.5.10.3 | www.virtualdub-fr.org || (build 2550/release)
    Writing library                          : VirtualDubMod build 2550/release

    Video
    ID                                       : 0
    Format                                   : MPEG-4 Visual
    Format profile                           : Advanced Simple@L5
    Format settings, BVOP                    : 1
    Format settings, QPel                    : No
    Format settings, GMC                     : No warppoints
    Format settings, Matrix                  : Custom
    Codec ID                                 : XVID
    Codec ID/Hint                            : XviD
    Duration                                 : 1h 29mn
    Bit rate                                 : 2 124 Kbps
    Width                                    : 720 pixels
    Height                                   : 304 pixels
    Display aspect ratio                     : 2.35:1
    Frame rate                               : 25.000 fps
    Color space                              : YUV
    Chroma subsampling                       : 4:2:0
    Bit depth                                : 8 bits
    Scan type                                : Progressive
    Compression mode                         : Lossy
    Bits/(Pixel*Frame)                       : 0.388
    Stream size                              : 1.33 GiB (91%)
    Writing library                          : XviD 73

    Audio
    ID                                       : 1
    Format                                   : AC-3
    Format/Info                              : Audio Coding 3
    Mode extension                           : CM (complete main)
    Codec ID                                 : 2000
    Duration                                 : 1h 29mn
    Bit rate mode                            : Constant
    Bit rate                                 : 192 Kbps
    Channel(s)                               : 2 channels
    Channel positions                        : Front: L R
    Sampling rate                            : 48.0 KHz
    Bit depth                                : 16 bits
    Compression mode                         : Lossy
    Stream size                              : 123 MiB (8%)
    Alignment                                : Split accross interleaves
    Interleave, duration                     : 40 ms (1.00 video frame)
    Interleave, preload duration             : 500 ms

    Скриншоты:

    Каталог Новинок (Фильмы-трейлеры, Игры, Сериалы, Мультфильмы)

    © Оформление by Raven
    piratbit.org



  • Скачать Испанец через торрент http://i67.fastpic.ru/big/2014/0805/13/358a606af03c63d2030357ab35b0f813.jpg Скачать фильм Испанец через торрент бесплантно в хорошем качестве Описание:Эта история, основанная на реальных событиях, рассказывает о жизни знаменитого испанского летчика Хосе Фернандеса. В конце ... 9.5 10 10
    Торрент: Зарегистрирован [2014-08-05 17:13] · скачан: 160 раз
    Статус: √ проверено
    Размер: 1.46 GB
    Как cкачать? Как скачать Испанец через торрент | UTorrent

    % Раздел Тема Автор DL S | L
    Наши сериалы [ 10.41 GB ] Испанец / Серии: 1-4 из 4 [2015 HDTV 1080i] кэп Скачать
    1 | 0
    Наши сериалы [ 7.39 GB ] Испанец / Сезон: 1 / Серии: 1-4 из 4 [2015 HDTVRip 720p] DomSarD Скачать
    1 | 0
    Наши фильмы 2012 [ 747 MB ] Испанец [2012 Россия DVDRip] Ворон Скачать
    1 | 0

    28-11-2019 20:33  

    Отключить всю рекламу на сайте

      Дорогой пользователь! Огромная просьба, поблагодарите релизера, оцените раздачу и оставьте свои комментарий, если Вы скачали Испанец через торрент бесплатно! Внесите свою лепту в развитие PiratBit!
      Комментировать посты могут только пользователи прошедшие не сложную регистрацию
      Показать сообщения:    

      Испанец через торрент
      Скачать бесплатно Испанец
      Испанец скачать торрент
      Испанец смотреть онлайн
      Cкачать фильм Испанец бесплатно
      Испанец скачать торрент в хорошем качестве
      Испанец смотреть онлайн бесплатно в хорошем качестве


      Вы не можете начинать темы
      Вы не можете отвечать на сообщения
      Вы не можете редактировать свои сообщения
      Вы не можете удалять свои сообщения
      Вы не можете голосовать в опросах
      Вы не можете прикреплять файлы к сообщениям
      Вы можете скачивать файлы