Всегда рабочее зеркало просто перед .vidak.icu напиши любое слово или цифру, Пример http://krt.vidak.icu

>

7.4

iTunes

7.4

2 сезон

9.4

1 сезон

1

7.4

2 сезон

7.2

iTunes

6.0

MVO

13

6.1

iTunes

8.3

Пиратка

30

ULTIMATE

pack

9.9

Лицензия

ВАЖНО

ИГРА 18+

pack

7.3

RePack

MK11

7.7

RePack

jed

7.8

RePack

fifa19

8.5

RePack

RDR2

RePack

NEED FOR SPEED™ PAYBACK

1 сезон

9 сезон

Бесстыжие 9 сезон

Все сериалы

все сериалы на PB.wtf

RePack

FAR CRY 5

Anonymous, доброй ночи, мы катастрофически не успеваем собрать деньги на оплату серверов, помогите нам пожалуйста 5,10,15р., для нас важна любая помощь . В качестве благодарности мы отключим Вам всю рекламу на сайте (укажите свой ник в строку Ваше имя)!

×
  
Magnet ссылка

Побег из курятника / Chicken Run (Питер Лорд / Peter Lord, Ник Парк / Nick Park) [2000, Великобритания, США, мультфильм, комедия, семейный, BDRip 720p,Дубляж - [Лицензия] 60FPS piratbit.org

Побег из курятника через торрент piratbit.org

Размер: 4.31 GB | Добавлен: 7 лет 5 мес. назад | Торрент скачан:12 раз
Смотреть онлайн Побег из курятника | Скачать    Ребята, помогите собрать деньги на оплату серверов!!!

08-08-2014 12:34 Побег из курятника Скачать торрент  

Побег из курятника / Chicken Run

Год выпуска: 2000
Страна: Великобритания, США
Жанр: мультфильм, комедия, семейный

Продолжительность: 01:24:29
Перевод: Дубляж, Многоголосый закадровый
Субтитры:Русские (Полные), Рнглийские (Полные),
Режиссер: Питер Лорд / Peter Lord, Ник Парк / Nick Park
В ролях:

Фил Дэниелс (Fetcher, озвучка), Линн Фергюсон (Mac, озвучка), Мэл Гибсон (Rocky, озвучка,), Тони Хейгарт (Mr. Tweedy, озвучка), Джейн Хоррокс (Babs, озвучка), Миранда Ричардсон (Mrs. Tweedy, озвучка), Джулия Савалия (Ginger, озвучка), Тимоти Сполл (Nick, озвучка), Имелда Стонтон (Bunty, озвучка), Бенжамин Уитроу (Fowler, озвучка), Джон Шэриан (Circus Man, озвучка), Джо Аллен (Additional Chicken, озвучка)
Описание:
Курочкам на ферме миссис Туиди приходится не легко. Для каждой из этих несчастных птиц любое, даже самое погожее утро, может стать последним: в мгновение ока они могут угодить в суп или стать начинкой для пирожка.
Безропотные домашние птички живут в постоянном страхе в ужасных курятниках, напоминающих бараки концлагеря. Все попытки вырваться из страшной фермы на волю оканчиваются провалом. Но однажды на ферме объявился веселый американский петух Рокки...
Рейтинг:


Автор рипа:Tiberiumsun69
Качество: BDRip 720p
Формат: MKV
Видео кодек: AVC
Аудио кодек:AC3
Видео: AVC, 1280x720, 5881 kbps, 59,997 fps
Аудио №1: Русский / AC3 / 2.0 / 48 kHz / 192 kbps / 16 bit |Дубляж ОРТ|
Аудио №2: Русский / AC3 / 5.1 / 48 kHz / 448 kbps / 16 bit |Многоголосый закадровый, Студия Премьер видео|
Аудио №3: Английский / AC3 / 5.1 / 48 kHz / 640 kbps / 16 bit
Навигация по главам: есть

Raven за помощь в создании обложек.
General
Unique ID : 174830371848720968788289222476070454959 (0x83871AD658EA9DCDB258335C600D06AF)
Complete name : A:\720p 60fps\Побег из курятника 720p 60fps.mkv
Format : Matroska
Format version : Version 4 / Version 2
File size : 4.31 GiB
Duration : 1h 24mn
Overall bit rate : 7 307 Kbps
Encoded date : UTC 2014-08-07 10:17:42
Writing application : mkvmerge v6.9.1 ('Blue Panther') 64bit built on Apr 18 2014 18:23:38
Writing library : libebml v1.3.0 + libmatroska v1.4.1
Attachment : Yes / Yes

Video
ID : 1
Format : AVC
Format/Info : Advanced Video Codec
Format profile : High@L4.1
Format settings, CABAC : Yes
Format settings, ReFrames : 9 frames
Codec ID : V_MPEG4/ISO/AVC
Duration : 1h 24mn
Bit rate : 5 881 Kbps
Width : 1 280 pixels
Height : 720 pixels
Display aspect ratio : 16:9
Frame rate : 59.997 fps
Color space : YUV
Chroma subsampling : 4:2:0
Bit depth : 8 bits
Scan type : Progressive
Bits/(Pixel*Frame) : 0.106
Stream size : 3.47 GiB (80%)
Writing library : x264 core 130 r2273 b3065e6
Encoding settings : cabac=1 / ref=9 / deblock=1:-1:-1 / analyse=0x3:0 / me=umh / subme=9 / psy=1 / psy_rd=1.00:0.10 / mixed_ref=1 / me_range=42 / chroma_me=0 / trellis=2 / 8x8dct=1 / cqm=0 / deadzone=21,11 / fast_pskip=0 / chroma_qp_offset=-3 / threads=12 / lookahead_threads=1 / sliced_threads=0 / nr=0 / decimate=0 / interlaced=0 / bluray_compat=0 / constrained_intra=0 / bframes=6 / b_pyramid=2 / b_adapt=2 / b_bias=0 / direct=1 / weightb=1 / open_gop=0 / weightp=2 / keyint=594 / keyint_min=59 / scenecut=40 / intra_refresh=0 / rc=crf / mbtree=0 / crf=15.0 / qcomp=0.60 / qpmin=0 / qpmax=69 / qpstep=4 / ip_ratio=1.40 / pb_ratio=1.30 / aq=0
Language : English
Default : Yes
Forced : No

Audio #1
ID : 2
Format : AC-3
Format/Info : Audio Coding 3
Mode extension : CM (complete main)
Codec ID : A_AC3
Duration : 1h 24mn
Bit rate mode : Constant
Bit rate : 192 Kbps
Channel(s) : 2 channels
Channel positions : Front: L R
Sampling rate : 48.0 KHz
Bit depth : 16 bits
Compression mode : Lossy
Stream size : 116 MiB (3%)
Title : Дубляж ОРТ
Language : Russian
Default : Yes
Forced : No

Audio #2
ID : 3
Format : AC-3
Format/Info : Audio Coding 3
Mode extension : CM (complete main)
Codec ID : A_AC3
Duration : 1h 24mn
Bit rate mode : Constant
Bit rate : 448 Kbps
Channel(s) : 6 channels
Channel positions : Front: L C R, Side: L R, LFE
Sampling rate : 48.0 KHz
Bit depth : 16 bits
Compression mode : Lossy
Stream size : 271 MiB (6%)
Title : MVO Премьер
Language : Russian
Default : No
Forced : No

Audio #3
ID : 6
Format : AC-3
Format/Info : Audio Coding 3
Mode extension : CM (complete main)
Codec ID : A_AC3
Duration : 1h 24mn
Bit rate mode : Constant
Bit rate : 640 Kbps
Channel(s) : 6 channels
Channel positions : Front: L C R, Side: L R, LFE
Sampling rate : 48.0 KHz
Bit depth : 16 bits
Compression mode : Lossy
Stream size : 387 MiB (9%)
Title : Original
Language : English
Default : No
Forced : No

Text #1
ID : 4
Format : UTF-8
Codec ID : S_TEXT/UTF8
Codec ID/Info : UTF-8 Plain Text
Title : Полные
Language : Russian
Default : No
Forced : No

Text #2
ID : 5
Format : UTF-8
Codec ID : S_TEXT/UTF8
Codec ID/Info : UTF-8 Plain Text
Title : Полные
Language : English
Default : No
Forced : No

Menu
00:00:00.000 : en:Chapter 1
00:07:30.874 : en:Chapter 2
00:13:03.499 : en:Chapter 3
00:18:27.083 : en:Chapter 4
00:26:25.916 : en:Chapter 5
00:33:35.750 : en:Chapter 6
00:40:30.208 : en:Chapter 7
00:47:52.416 : en:Chapter 8
00:56:15.583 : en:Chapter 9
01:06:39.958 : en:Chapter 10
01:16:51.416 : en:Chapter 11
01:19:31.750 : en:Chapter 12
Авторская группа в ВК
piratbit.org



Скачать Побег из курятника через торрент http://i66.fastpic.ru/big/2014/0808/d6/b318ea840065cdbf4749e17b90a797d6.png Скачать, смотреть онлайн Побег из курятника бесплантно в хорошем качестве Описание: Курочкам на ферме миссис Туиди приходится не легко. Для каждой из этих несчастных птиц любое, даже самое погожее утро, может ... 9.1 10 10
Info! Золотая раздача, скачанное не засчитывается.
Торрент: Зарегистрирован [2014-08-08 12:34] · скачан: 12 раз
Статус: √ проверено
Размер: 4.31 GB
Как cкачать? Как скачать Побег из курятника через торрент | UTorrent

% Раздел Тема Автор DL S | L
Мультфильмы (48-60 fps) [ 8.61 GB ] Побег из курятника / Chicken Run [2000 мультфильм BDRip 1080p - [] 60FPS Tiberiumsun69 Скачать
1 | 0

28-11-2019 20:33  

Отключить всю рекламу на сайте

07-12-2018 20:04 Побег из курятника Скачать торрент  

seed please
thankspiratbit.org



    Дорогой пользователь! Огромная просьба, поблагодарите релизера, оцените раздачу и оставьте свои комментарий, если Вы скачали Побег из курятника через торрент бесплатно!
    Комментировать посты могут только пользователи прошедшие не сложную регистрацию
    Показать сообщения:    

    Побег из курятника через торрент
    Скачать бесплатно Побег из курятника
    Побег из курятника скачать торрент
    Побег из курятника смотреть онлайн
    Cкачать фильм Побег из курятника бесплатно
    Побег из курятника скачать торрент в хорошем качестве
    Побег из курятника смотреть онлайн бесплатно в хорошем качестве


    Вы не можете начинать темы
    Вы не можете отвечать на сообщения
    Вы не можете редактировать свои сообщения
    Вы не можете удалять свои сообщения
    Вы не можете голосовать в опросах
    Вы не можете прикреплять файлы к сообщениям
    Вы можете скачивать файлы