2 сезон

iTunes

MVO

1

2 сезон

iTunes

iTunes

1 сезон

RePack

30

Ultimate

ВАЖНО

ИГРА 18+

pack

RePack

MK11
pack

Легкие деньги

RePack

jed

RePack

fifa19

RePack

RDR2

RePack

NEED FOR SPEED™ PAYBACK

4 сезон

9 сезон

Бесстыжие 9 сезон

Все сериалы

все сериалы на PB.wtf

RePack

FAR CRY 5

Anonymous, доброе утро, мы не успеваем собрать деньги на оплату серверов за декабрь и январь, помогите нам пожалуйста в это трудное время. В качестве благодарности мы отключим Вам всю рекламу на сайте (укажите свой ник в строку Ваше имя)!

×
  
Magnet ссылка

Охота Ханта / The Hunting Party (Ричард Шепард / Richard Shepard) [2007, США, Хорватия, Босния-Герцеговина, триллер, драма, комедия, BDRip., Дубляж] piratbit.org

Охота Ханта через торрент piratbit.org

Размер: 1.46 GB | Добавлен: 6 лет 5 мес. назад | Торрент скачан:96 раз
Скачать  

17-08-2014 10:02 Охота Ханта Скачать торрент  

Охота Ханта / The Hunting Party

Год выпуска: 2007
Страна: США, Хорватия, Босния-Герцеговина
Жанр: триллер, драма, комедия, приключения, военный

Продолжительность: 01:43:11
Перевод: Дубляж
Субтитры: Нет
Режиссер: Ричард Шепард / Richard Shepard
В ролях: Ричард Гир (Simon Hunt), Терренс Ховард (Duck), Джесси Айзенберг (Benjamin Strauss), Джеймс Бролин (Franklin Harris), Дайан Крюгер (Mirjana), Дилан Бейкер (CIA Operative), Здравко Косевар (Sascha), Марк Иванир (Boris), Джой Брайант (Duck's Girlfriend), Любомир Керекеш (The Fox), Джордана Вукрес (Girl at Awards Ceremony), Санела Сеферагич (Sexy Assistant)
Описание:
Репортер Саймон Хант и оператор Дак вместе побывали в самых горячих точках планеты: от Боснии до Ирака, от Сомали до Эль Сальвадора. Они вместе уклонялись от пуль, записывали впечатляющие сюжеты и получали награды Эмми. Но однажды все изменилось. Во время прямого эфира с Саймоном случается нервный приступ, после чего Дака повышают по службе, а Саймон куда-то исчезает.
Спустя пять лет Саймон неожиданно возвращается и обещает эксклюзивный сенсационный репортаж. Он убеждает Дака, что знает, где найти «Лиса» - Боснийского преступника номер один, которого разыскивают все спецслужбы мира. С этой опасной миссией журналисты, вооруженные лишь невнятной информацией, отправляются в самую глубь враждебной территории...
Рейтинг


MPAA:
R - Лицам до 17 лет обязательно присутствие взрослого

Качество: BDRip
Формат: AVI
Видео кодек: XviD
Аудио кодек:AC3
Видео: XviD, 720x304 (2.35:1), 1628 kbps, 23,976 fps, 0,310 bpp
Аудио: AC3 / 5.1 / 48 kHz / 384 kbps / 16 bit

Сэмпл
Общее
Полное имя : E:\ФИЛЬМЫ\Ohota.Hanta.2007.RUS.BDRip.XviD.AC3..avi
Формат : AVI
Формат/Информация : Audio Video Interleave
Размер файла : 1,46 Гбайт
Продолжительность : 1 ч. 43 м.
Общий поток : 2022 Кбит/сек
Программа кодирования : VirtualDubMod 1.5.10.2 (build 2540/release)

Видео
Идентификатор : 0
Формат : MPEG-4 Visual
Профиль формата : Advanced Simple@L5
Параметр BVOP формата : 2
Параметр QPel формата : Нет
Параметр GMC формата : Без точки перехода
Параметр матрицы формата : Default (MPEG)
Режим смешивания : Сжатый битовый поток
Идентификатор кодека : XVID
Идентификатор кодека/Подсказка : XviD
Продолжительность : 1 ч. 43 м.
Битрейт : 1629 Кбит/сек
Ширина : 720 пикселей
Высота : 304 пикселя
Соотношение сторон : 2,35:1
Частота кадров : 23,976 кадра/сек
Цветовое пространство : YUV
Субдискретизация насыщенности : 4:2:0
Битовая глубина : 8 бит
Тип развёртки : Прогрессивная
Метод сжатия : С потерями
Бит/(Пиксели*Кадры) : 0.310
Размер потока : 1,17 Гбайт (81%)
Библиотека кодирования : XviD 1.1.2 (UTC 2006-11-01)

Аудио
Идентификатор : 1
Формат : AC-3
Формат/Информация : Audio Coding 3
Расширение режима : CM (complete main)
Параметр Endianness формата : Big
Идентификатор кодека : 2000
Продолжительность : 1 ч. 43 м.
Вид битрейта : Постоянный
Битрейт : 384 Кбит/сек
Каналы : 6 каналов
Расположение каналов : Front: L C R, Side: L R, LFE
Частота : 48,0 КГц
Битовая глубина : 16 бит
Метод сжатия : С потерями
Размер потока : 283 Мбайт (19%)
Выравнивание : Разделение по промежуткам
Продолжительность промежутка : 42 мс. (1,00 видеокадр)
Время предзагрузки промежутка : 500 мс.
piratbit.org



Скачать Охота Ханта через торрент http://pic.kartinco.top/new/img/2014-08/17/pxv5vaf7xfmjft4kcv29nakfs.jpg Скачать фильм Охота Ханта через торрент бесплантно в хорошем качестве Описание: Репортер Саймон Хант и оператор Дак вместе побывали в самых горячих точках планеты: от Боснии до Ирака, от Сомали до Эль ... 9.5 10 4
Торрент: Зарегистрирован [2014-08-17 10:02] · скачан: 96 раз
Статус: √ проверено
Размер: 1.46 GB
Как cкачать? Как скачать Охота Ханта через торрент | UTorrent

28-11-2019 20:33  

Отключить всю рекламу на сайте

    Дорогой пользователь! Огромная просьба, поблагодарите релизера, оцените раздачу и оставьте свои комментарий, если Вы скачали Охота Ханта через торрент бесплатно! Внесите свою лепту в развитие PiratBit!
    Комментировать посты могут только пользователи прошедшие не сложную регистрацию
    Показать сообщения:    

    Охота Ханта через торрент
    Скачать бесплатно Охота Ханта
    Охота Ханта скачать торрент
    Охота Ханта смотреть онлайн
    Cкачать фильм Охота Ханта бесплатно
    Охота Ханта скачать торрент в хорошем качестве
    Охота Ханта смотреть онлайн бесплатно в хорошем качестве


    Вы не можете начинать темы
    Вы не можете отвечать на сообщения
    Вы не можете редактировать свои сообщения
    Вы не можете удалять свои сообщения
    Вы не можете голосовать в опросах
    Вы не можете прикреплять файлы к сообщениям
    Вы можете скачивать файлы