Всегда рабочее зеркало просто перед .vidak.icu напиши любое слово или цифру, Пример http://bj0.vidak.icu

>

7.4

iTunes

7.4

2 сезон

6.6

iTunes

1

7.4

2 сезон

7.2

iTunes

6.0

MVO

13

6.1

iTunes

8.3

Пиратка

30

ULTIMATE

pack

9.9

Лицензия

ВАЖНО

ИГРА 18+

pack

7.3

RePack

MK11

7.7

RePack

jed

7.8

RePack

fifa19

8.5

RePack

RDR2

RePack

NEED FOR SPEED™ PAYBACK

1 сезон

9 сезон

Бесстыжие 9 сезон

Все сериалы

все сериалы на PB.wtf

RePack

FAR CRY 5

Anonymous, добрый вечер, мы катастрофически не успеваем собрать деньги на оплату серверов, помогите нам пожалуйста 5,10,15р., для нас важна любая помощь . В качестве благодарности мы отключим Вам всю рекламу на сайте (укажите свой ник в строку Ваше имя)!

×
  
Magnet ссылка

Бэмби / Bambi (Джеймс Элгар / James Algar, Сэмюэл Армстронг / Samuel Armstrong, Дэвид Хэнд / David Hand) [1942, США, мультфильм, драма, семейный, BDRip 720p / 60 FPS, Дубляж] piratbit.org

Бэмби через торрент piratbit.org

Размер: 2.32 GB | Добавлен: 7 лет 4 мес. назад | Торрент скачан:225 раз
Смотреть онлайн Бэмби | Скачать    Ребята, помогите собрать деньги на оплату серверов!!!

25-08-2014 13:42 Бэмби Скачать торрент  

Бэмби / Bambi«A great love story»



Год выпуска: 1942
Страна: США
Жанр: мультфильм, драма, семейный
Продолжительность: 01:09:50
Перевод: Дубляж
Субтитры:русские (Полные), английские (Полные)
Режиссер:Джеймс Элгар / James Algar, Сэмюэл Армстронг / Samuel Armstrong, Дэвид Хэнд / David Hand
В ролях:

Харди Олбрайт (Adolescent Bambi, озвучка, в титрах не указан), Стэн Александр (Young Flower, озвучка, в титрах не указан), Бобетт Одри (озвучка, в титрах не указана), Питер Бен (Young Thumper, озвучка, в титрах не указан), Тельма Бордман (Mrs. Quail / Pheasant, озвучка, в титрах не указана), Джанет Чэпман (озвучка, в титрах не указана), Джинн Кристи (озвучка, в титрах не указана), Долин Брэмстон Кук (озвучка, в титрах не указан), Мэрион Дарлингтон (Birds, озвучка, в титрах не указана), Тим Дэвис (Adult Thumper / Adolescent Flower, озвучка, в титрах не указан), Донни Данаган (Young Bambi, озвучка, в титрах не указан), Сэм Эдвардс (Adult Thumper, озвучка, в титрах не указан)
Описание:
Однажды утром на маленькой, освещенной весенним солнцем, лесной полянке родился олененок. На нового лесного принца сбежались и слетелись посмотреть все звери и птицы. Олененка назвали Бэмби.
Когда Бэмби научился ходить и разговаривать он обзавелся друзьями - кроликом Тампером и скунсом Цветочком. А однажды на лугу, куда привела его мама, Бэмби познакомился с маленькой веселой оленихой - Фэйлин. Но жизнь в лесу бывает опасной и жестокой. Впервые Бэмби столкнулся с этим, когда прозрачный осенний лесной воздух пронзили выстрелы из ружья - все звери начали в панике убегать, и тогда Бэмби впервые услышал страшное слово - Человек.

Автор рипа:Tiberiumsun69

Качество: BDRip 720p / 60 FPS
Формат: MKV
Видео кодек: AVC
Аудио кодек:AC3
Видео: 960x712, 3645 kbps, 59,940 fps
Аудио №1: русский/ 5.1/ 48 kHz/ 384 kbps/ AC3/ |Дубляж|
Аудио №2: английский/ 5.1/ 48 kHz/ 640 kbps/ AC3
Навигация по главам: есть


Raven за помощь в создании обложки.

Код:

General
Unique ID                                : 220792925475859631146466765034258076635 (0xA61B2BB0EAA08F229B335FF782EE93DB)
Complete name                            : A:\720p 60fps\Бэмби 720p 60fps.mkv
Format                                   : Matroska
Format version                           : Version 4 / Version 2
File size                                : 2.32 GiB
Duration                                 : 1h 9mn
Overall bit rate                         : 4 765 Kbps
Encoded date                             : UTC 2014-08-25 12:13:40
Writing application                      : mkvmerge v6.9.1 ('Blue Panther') 64bit built on Apr 18 2014 18:23:38
Writing library                          : libebml v1.3.0 + libmatroska v1.4.1

Video
ID                                       : 1
Format                                   : AVC
Format/Info                              : Advanced Video Codec
Format profile                           : High@L4.1
Format settings, CABAC                   : Yes
Format settings, ReFrames                : 9 frames
Codec ID                                 : V_MPEG4/ISO/AVC
Duration                                 : 1h 9mn
Bit rate                                 : 3 646 Kbps
Width                                    : 960 pixels
Height                                   : 712 pixels
Display aspect ratio                     : 4:3
Frame rate                               : 59.940 fps
Color space                              : YUV
Chroma subsampling                       : 4:2:0
Bit depth                                : 8 bits
Scan type                                : Progressive
Bits/(Pixel*Frame)                       : 0.089
Stream size                              : 1.78 GiB (77%)
Writing library                          : x264 core 133 r2334 a3ac64b
Encoding settings                        : cabac=1 / ref=9 / deblock=1:-1:-1 / analyse=0x3:0 / me=umh / subme=9 / psy=1 / psy_rd=1.00:0.10 / mixed_ref=1 / me_range=42 / chroma_me=0 / trellis=2 / 8x8dct=1 / cqm=0 / deadzone=21,11 / fast_pskip=0 / chroma_qp_offset=-3 / threads=12 / lookahead_threads=1 / sliced_threads=0 / nr=0 / decimate=0 / interlaced=0 / bluray_compat=0 / constrained_intra=0 / bframes=6 / b_pyramid=2 / b_adapt=2 / b_bias=0 / direct=1 / weightb=1 / open_gop=0 / weightp=2 / keyint=594 / keyint_min=59 / scenecut=40 / intra_refresh=0 / rc=crf / mbtree=0 / crf=15.0 / qcomp=0.60 / qpmin=0 / qpmax=69 / qpstep=4 / ip_ratio=1.40 / pb_ratio=1.30 / aq=0
Language                                 : English
Default                                  : Yes
Forced                                   : No

Audio #1
ID                                       : 2
Format                                   : AC-3
Format/Info                              : Audio Coding 3
Mode extension                           : CM (complete main)
Codec ID                                 : A_AC3
Duration                                 : 1h 9mn
Bit rate mode                            : Constant
Bit rate                                 : 384 Kbps
Channel(s)                               : 6 channels
Channel positions                        : Front: L C R, Side: L R, LFE
Sampling rate                            : 48.0 KHz
Bit depth                                : 16 bits
Compression mode                         : Lossy
Stream size                              : 192 MiB (8%)
Title                                    : Дубляж
Language                                 : Russian
Default                                  : Yes
Forced                                   : No

Audio #2
ID                                       : 5
Format                                   : AC-3
Format/Info                              : Audio Coding 3
Mode extension                           : CM (complete main)
Codec ID                                 : A_AC3
Duration                                 : 1h 9mn
Bit rate mode                            : Constant
Bit rate                                 : 640 Kbps
Channel(s)                               : 6 channels
Channel positions                        : Front: L C R, Side: L R, LFE
Sampling rate                            : 48.0 KHz
Bit depth                                : 16 bits
Compression mode                         : Lossy
Stream size                              : 320 MiB (13%)
Title                                    : Original
Language                                 : English
Default                                  : No
Forced                                   : No

Text #1
ID                                       : 3
Format                                   : UTF-8
Codec ID                                 : S_TEXT/UTF8
Codec ID/Info                            : UTF-8 Plain Text
Title                                    : Полные
Language                                 : Russian
Default                                  : No
Forced                                   : No

Text #2
ID                                       : 4
Format                                   : UTF-8
Codec ID                                 : S_TEXT/UTF8
Codec ID/Info                            : UTF-8 Plain Text
Title                                    : Полные
Language                                 : English
Default                                  : No
Forced                                   : No

Menu
00:00:00.000                             : en:Chapter 1
00:01:19.204                             : en:Chapter 2
00:05:13.146                             : en:Chapter 3
00:08:19.874                             : en:Chapter 4
00:09:50.840                             : en:Chapter 5
00:13:53.457                             : en:Chapter 6
00:15:56.914                             : en:Chapter 7
00:19:50.772                             : en:Chapter 8
00:24:25.422                             : en:Chapter 9
00:27:16.092                             : en:Chapter 10
00:28:26.079                             : en:Chapter 11
00:30:37.043                             : en:Chapter 12
00:34:07.962                             : en:Chapter 13
00:35:29.627                             : en:Chapter 14
00:41:00.124                             : en:Chapter 15
00:41:57.598                             : en:Chapter 16
00:43:28.981                             : en:Chapter 17
00:46:07.848                             : en:Chapter 18
00:47:24.550                             : en:Chapter 19
00:52:25.475                             : en:Chapter 20
00:53:40.800                             : en:Chapter 21
00:55:30.201                             : en:Chapter 22
00:57:40.957                             : en:Chapter 23
01:03:16.250                             : en:Chapter 24
01:07:17.992                             : en:Chapter 25
01:09:50.269                             : en:Chapter 26

..::Скриншоты::..

Просьба к заливающим на другие сайты "Подписывайте пожалуйста автора рипа Tiberiumsun69"

© Оформление by Tiberiumsun69
Авторская группа в ВК
piratbit.org



Скачать Бэмби через торрент https://pic1.kartinco.top/images/61/stazu.jpg Скачать, смотреть онлайн Бэмби бесплантно в хорошем качестве Описание: Однажды утром на маленькой, освещенной весенним солнцем, лесной полянке родился олененок. На нового лесного принца сбежались и ... 10 10 6
Info! Золотая раздача, скачанное не засчитывается.
Торрент: Зарегистрирован [2014-08-25 13:42] · скачан: 225 раз
Статус: √ проверено
Размер: 2.32 GB
Как cкачать? Как скачать Бэмби через торрент | UTorrent

% Раздел Тема Автор DL S | L
Мультфильмы (48-60 fps) [ 4.23 GB ] Бэмби / Bambi [1942 мультфильм BDRip 1080p / 60 FPS ] Tiberiumsun69 Скачать
1 | 0

28-11-2019 20:33  

Отключить всю рекламу на сайте

    Дорогой пользователь! Огромная просьба, поблагодарите релизера, оцените раздачу и оставьте свои комментарий, если Вы скачали Бэмби через торрент бесплатно!
    Комментировать посты могут только пользователи прошедшие не сложную регистрацию
    Показать сообщения:    

    Бэмби через торрент
    Скачать бесплатно Бэмби
    Бэмби скачать торрент
    Бэмби смотреть онлайн
    Cкачать фильм Бэмби бесплатно
    Бэмби скачать торрент в хорошем качестве
    Бэмби смотреть онлайн бесплатно в хорошем качестве


    Вы не можете начинать темы
    Вы не можете отвечать на сообщения
    Вы не можете редактировать свои сообщения
    Вы не можете удалять свои сообщения
    Вы не можете голосовать в опросах
    Вы не можете прикреплять файлы к сообщениям
    Вы можете скачивать файлы