1 сезон

iTunes

iTunes

1

Line

MVO

iTunes

13

1 сезон

RePack

30

Deluxe

pack

Лицензия

ВАЖНО

ИГРА 18+

pack

RePack

MK11

RePack

jed

RePack

fifa19

RePack

RDR2

RePack

NEED FOR SPEED™ PAYBACK

4 сезон

9 сезон

Бесстыжие 9 сезон

Все сериалы

все сериалы на PB.wtf

RePack

FAR CRY 5

Anonymous, доброе утро, мы катастрофически не успеваем собрать деньги на оплату серверов, помогите нам пожалуйста 5,10,15р., для нас важна любая помощь . В качестве благодарности мы отключим Вам всю рекламу на сайте (укажите свой ник в строку Ваше имя)!

×
  
Magnet ссылка

Шпионские игры / Spy Game (Тони Скотт) [2001, боевик, триллер, криминал, HDRip-AVC] DUB piratbit.org

Шпионские игры через торрент piratbit.org

Размер: 2.05 GB | Добавлен: 6 лет 11 мес. назад | Торрент скачан:114 раз
Скачать  

30-08-2014 12:43 Шпионские игры Скачать торрент  

Шпионские игры / Spy Game
«От напряжения замирает сердце»


Год выпуска: 2001
Страна: США , Германия , Франция , Япония
Жанр: боевик, триллер, криминал
Продолжительность: 02:06:38
Cубтитры: Russian (UTF-8)
Перевод: Профессиональный (дублированный)

Режиссер: Тони Скотт
Сценарий: Майкл Фрост Бекнер, Дэвид Арата
Продюсер: Марк Абрахам, Дуглас Уик, Стефани Антоска
Оператор: Дэниэл Миндел
Композитор : Гарри Грегсон-Уильямс
Художник: Норрис Спенсер, Кевин Фиппс, Луиз Фрогли
Монтаж: Кристиан Вагнер

В ролях: Роберт Редфорд / Robert Redford (Nathan D. Muir), Брэд Питт / Brad Pitt (Tom Bishop), Катрин МакКормак / Catherine McCormack (Elizabeth Hadley), Стивен Диллэйн / Stephen Dillane (Charles Harker), Ларри Бриггман / Larry Bryggman (Troy Folger), Марианн Жан-Батист / Marianne Jean-Baptiste (Gladys Jennip), Мэттью Марш / Matthew Marsh (Dr. William Byars), Тодд Бойс / Todd Boyce (Robert Aiken)


Описание: Натан Мьюир — специальный агент ЦРУ, ветеран разведки. В свой последний рабочий день перед уходом на пенсию он узнает, что его протеже, талантливый оперативник Том Бишоп, находится в китайской тюрьме, и ему грозит смертная казнь. Профессионалу экстра-класса Мьюиру потребовалось совсем немного времени, чтобы понять, что Бишопа отдадут «на заклание» властям Китая. Теперь у Нэйтэна остаются считанные часы для того, чтобы, рискуя собственной головой, провернуть невиданную по дерзости операцию и спасти своего ученика.

СЭМПЛ

Бюджет: $115 000 000
Сборы в США: $62 362 560
Сборы в мире: $143 049 560
Зрители: США 11 млн , Италия 1.65 млн , Франция 1.46 млн
Премьера (мир): 19 ноября 2001
Премьера (РФ): 7 февраля 2002, «Ист-Вест»
Релиз на DVD: 11 июня 2012, «Новый Диск»
Релиз на Blu-Ray: 28 марта 2013, «Двадцатый Век Фокс СНГ»
Рейтинг MPAA: Лицам до 17 лет обязательно присутствие взрослого


Качество: HDRip-AVC
Формат: MKV
Видео кодек: AVC
Аудио кодек: AC3
Видео: 1072x456 (2.35:1), 23.976 fps, AVC, 1 935 Kbps
Аудио: Аудио #1: AC3, 192 Kbps, 48.0 KHz, 2 ch Профессиональный (дублированный)
Аудио #2: AC3, 192 Kbps, 48.0 KHz, 2 ch Оригинал (Английский)
· Часть фильма должна была сниматься в Израиле, но из-за обострившегося израильско-палестинского конфликта съёмки были перенесены в Марокко.

· Картина посвящается памяти матери Тони Скотта, Элизабет Джилл Скотт, которая умерла в 2001 году.

· Здание, которое в фильме называют посольством США в Гонконге, на самом деле является главным филиалом гонконгского национального банка.

· Испытание, которое Редфорд устраивает Питту, когда просит его через пять минут оказаться на одном из балконов соседнего дома, описано в книге бывшего агента Моссада, Виктора Островского.

Код:

General
Complete name                    : Shpionskie.igry.2001.HDRip.mkv
Format                           : Matroska
File size                        : 2.05 GiB
Duration                         : 2h 6mn
Overall bit rate                 : 2 320 Kbps

Video
ID                               : 1
Format                           : AVC
Format/Info                      : Advanced Video Codec
Format profile                   : High@L4.1
Format settings, CABAC           : Yes
Format settings, ReFrames        : 11 frames
Muxing mode                      : Container profile=Unknown@4.1
Codec ID                         : V_MPEG4/ISO/AVC
Duration                         : 2h 6mn
Bit rate                         : 1 935 Kbps
Width                            : 1 072 pixels
Height                           : 456 pixels
Display aspect ratio             : 2.35:1
Frame rate mode                  : Variable
Frame rate                       : 23.976 fps
Color space                      : YUV
Chroma subsampling               : 4:2:0
Bit depth                        : 8 bits
Scan type                        : Progressive
Bits/(Pixel*Frame)               : 0.165
Stream size                      : 1.67 GiB (81%)

Audio #1
ID                               : 2
Format                           : AC-3
Format/Info                      : Audio Coding 3
Mode extension                   : CM (complete main)
Codec ID                         : A_AC3
Duration                         : 2h 6mn
Bit rate mode                    : Constant
Bit rate                         : 192 Kbps
Channel(s)                       : 2 channels
Channel positions                : Front: L R
Sampling rate                    : 48.0 KHz
Bit depth                        : 16 bits
Stream size                      : 174 MiB (8%)
Title                            : Дубляж
Language                         : Russian

Audio #2
ID                               : 3
Format                           : AC-3
Format/Info                      : Audio Coding 3
Mode extension                   : CM (complete main)
Codec ID                         : A_AC3
Duration                         : 2h 6mn
Bit rate mode                    : Constant
Bit rate                         : 192 Kbps
Channel(s)                       : 2 channels
Channel positions                : Front: L R
Sampling rate                    : 48.0 KHz
Bit depth                        : 16 bits
Stream size                      : 174 MiB (8%)
Title                            : Ориганал

Text #1
ID                               : 4
Format                           : UTF-8
Codec ID                         : S_TEXT/UTF8
Codec ID/Info                    : UTF-8 Plain Text
Language                         : Russian

Text #2
ID                               : 5
Format                           : UTF-8
Codec ID                         : S_TEXT/UTF8
Codec ID/Info                    : UTF-8 Plain Text
Title                            : SDH

piratbit.org



Скачать Шпионские игры через торрент http://i68.fastpic.ru/big/2014/0830/11/d935cf4bbef8633586356a644ce7fe11.jpg Скачать фильм Шпионские игры через торрент бесплантно в хорошем качестве Описание: Натан Мьюир — специальный агент ЦРУ, ветеран разведки. В свой последний рабочий день перед уходом на пенсию он узнает, что его ... 9.8 10 6
Info! Серебряная раздача, засчитывается только 50% скачанного.
Торрент: Зарегистрирован [2014-08-30 12:43] · скачан: 114 раз
Статус: √ проверено
Размер: 2.05 GB
Как cкачать? Как скачать Шпионские игры через торрент | UTorrent

28-11-2019 20:33  

Отключить всю рекламу на сайте

    Дорогой пользователь! Огромная просьба, поблагодарите релизера, оцените раздачу и оставьте свои комментарий, если Вы скачали Шпионские игры через торрент бесплатно! Внесите свою лепту в развитие PiratBit!
    Комментировать посты могут только пользователи прошедшие не сложную регистрацию
    Показать сообщения:    

    Шпионские игры через торрент
    Скачать бесплатно Шпионские игры
    Шпионские игры скачать торрент
    Шпионские игры смотреть онлайн
    Cкачать фильм Шпионские игры бесплатно
    Шпионские игры скачать торрент в хорошем качестве
    Шпионские игры смотреть онлайн бесплатно в хорошем качестве


    Вы не можете начинать темы
    Вы не можете отвечать на сообщения
    Вы не можете редактировать свои сообщения
    Вы не можете удалять свои сообщения
    Вы не можете голосовать в опросах
    Вы не можете прикреплять файлы к сообщениям
    Вы можете скачивать файлы