Доктор Стрэндж

Лицензия

Добыча

Дубляж

Дом дракона

1 сезон

Тор

Дубляж

В эфире

Дубляж

Там, где раки поют

MVO

Властелин колец

1 сезон

Ultimate

pack

Рекомендуем

30

Пиратка

ВАЖНО

ВАЖНО

Ghostwire

Пиратка

jed

RePack

nioh2

RePack

RDR2

RePack

NEED FOR SPEED™ PAYBACK

RePack

скачать торрент

Кинопоиск HD

Острые козырьки 6 сезон

6 сезон

FAR CRY 6

RePack

скачать торрент

Лицензия

скачать торрент

MVO

1

1 сезон

скачать торрент

1 сезон

скачать торрент

Лицензия

  

Теккен 2 / Tekken: A Man Called X (Вич Каосаянанда) [2014, боевик, BDRip 1080p, Любительский (двухголосый)

Теккен 2 через торрент piratbit.org

Размер: 8.59 GB | Добавлен: 8 лет 2 мес. назад | Торрент скачан:101 раз
Смотреть онлайн | Скачать   

31-08-2014 12:44 Теккен 2 Скачать торрент  

Теккен 2 / Tekken: A Man Called X
«Survival Is No Game»

Год выпуска: 2014
Страна: США
Жанр:боевик
Продолжительность:01:28:41
Перевод:Любительский (двухголосый)
Режиссер:Вич Каосаянанда

  • В ролях:

    Кейн Косуги (K), Келли Венхам (Rona), Гэри Дэниелс (Bryan Fury), Раде Шербеджия (The Minister), Кэри-Хироюки Тагава (Heihachi), Бильяна Мишич (Natasha), Шарлотта Кирк (Chloe), Пейдж Линдквист (Aura), Брахим Ачаббаке (Rip), Абишек Дж. Баджадж (Apartment Manager), Расселл Джеффри Бэнкс (Jimmy The Thief), Сахайак Бунсанакит (The Janitor)

  • Описание:
    Страдающего амнезией молодого парня, пытающегося выяснить - кто он есть на самом деле, похищает подпольная преступная организация и превращает в безжалостного убийцу.

  • Мировая премьера:6 августа 2014


    Качество: BDRip 1080p
    Формат:MKV
    Видео кодек: AVC
    Аудио кодек:AC3
    Видео: AVC, 1920x800 (2.40:1), 13253 kbps, 23,976 fps, 0,360 bpp
    Аудио №1: русский / AC3 / 5.1 / 48 kHz / 384 kbps / 16 bit ||
    Аудио №2: английский / AC3 / 5.1 / 48 kHz / 448 kbps / 16 bit

    Код:

    General
    Unique ID                                : 221199969702330432575315730783976552623 (0xA6699085590CD997A1F3C17E492FF8AF)
    Complete name                            : D:\Торенты\Tekken.2.Kazuyas.Revenge.2014.1080p.Bluray.mkv
    Format                                   : Matroska
    Format version                           : Version 2
    File size                                : 8.59 GiB
    Duration                                 : 1h 28mn
    Overall bit rate                         : 13.9 Mbps
    Encoded date                             : UTC 2014-08-30 18:24:01
    Writing application                      : mkvmerge v5.0.1 ('Es ist Sommer') built on Nov  6 2011 16:23:40
    Writing library                          : libebml v1.2.2 + libmatroska v1.3.0

    Video
    ID                                       : 1
    Format                                   : AVC
    Format/Info                              : Advanced Video Codec
    Format profile                           : High@L4.1
    Format settings, CABAC                   : Yes
    Format settings, ReFrames                : 4 frames
    Muxing mode                              : Header stripping
    Codec ID                                 : V_MPEG4/ISO/AVC
    Duration                                 : 1h 28mn
    Bit rate                                 : 13.3 Mbps
    Width                                    : 1 920 pixels
    Height                                   : 800 pixels
    Display aspect ratio                     : 2.40:1
    Frame rate mode                          : Variable
    Frame rate                               : 23.976 fps
    Color space                              : YUV
    Chroma subsampling                       : 4:2:0
    Bit depth                                : 8 bits
    Scan type                                : Progressive
    Bits/(Pixel*Frame)                       : 0.360
    Stream size                              : 7.91 GiB (92%)
    Writing library                          : x264 core 130 r2273 b3065e6
    Encoding settings                        : cabac=1 / ref=1 / deblock=1:0:0 / analyse=0x3:0x113 / me=hex / subme=2 / psy=1 / psy_rd=1.00:0.00 / mixed_ref=0 / me_range=16 / chroma_me=1 / trellis=0 / 8x8dct=1 / cqm=0 / deadzone=21,11 / fast_pskip=1 / chroma_qp_offset=0 / threads=6 / lookahead_threads=2 / sliced_threads=0 / nr=0 / decimate=1 / interlaced=0 / bluray_compat=0 / constrained_intra=0 / bframes=3 / b_pyramid=2 / b_adapt=1 / b_bias=0 / direct=1 / weightb=1 / open_gop=0 / weightp=1 / keyint=240 / keyint_min=24 / scenecut=40 / intra_refresh=0 / rc_lookahead=10 / rc=abr / mbtree=1 / bitrate=13253 / ratetol=1.0 / qcomp=0.60 / qpmin=0 / qpmax=69 / qpstep=4 / vbv_maxrate=62500 / vbv_bufsize=78125 / nal_hrd=none / ip_ratio=1.40 / aq=1:1.00
    Language                                 : English
    Default                                  : Yes
    Forced                                   : No
    Color primaries                          : BT.709-5, BT.1361, IEC 61966-2-4, SMPTE RP177
    Transfer characteristics                 : BT.709-5, BT.1361
    Matrix coefficients                      : BT.709-5, BT.1361, IEC 61966-2-4 709, SMPTE RP177

    Audio #1
    ID                                       : 2
    Format                                   : AC-3
    Format/Info                              : Audio Coding 3
    Mode extension                           : CM (complete main)
    Muxing mode                              : Header stripping
    Codec ID                                 : A_AC3
    Duration                                 : 1h 28mn
    Bit rate mode                            : Constant
    Bit rate                                 : 384 Kbps
    Channel(s)                               : 6 channels
    Channel positions                        : Front: L C R, Side: L R, LFE
    Sampling rate                            : 48.0 KHz
    Bit depth                                : 16 bits
    Compression mode                         : Lossy
    Stream size                              : 244 MiB (3%)
    Title                                    : Русский
    Language                                 : Russian
    Default                                  : Yes
    Forced                                   : No

    Audio #2
    ID                                       : 3
    Format                                   : AC-3
    Format/Info                              : Audio Coding 3
    Mode extension                           : CM (complete main)
    Muxing mode                              : Header stripping
    Codec ID                                 : A_AC3
    Duration                                 : 1h 28mn
    Bit rate mode                            : Constant
    Bit rate                                 : 448 Kbps
    Channel(s)                               : 6 channels
    Channel positions                        : Front: L C R, Side: L R, LFE
    Sampling rate                            : 48.0 KHz
    Bit depth                                : 16 bits
    Compression mode                         : Lossy
    Stream size                              : 284 MiB (3%)
    Title                                    : Английский
    Language                                 : English
    Default                                  : No
    Forced                                   : No

    Скриншоты:


    Срочно! Нужна помощь!


    © Оформление by Raven



  • Скачать Теккен 2 через торрент https://pic1.kartinco.top/images/61/stazu.jpg Скачать, смотреть онлайн Теккен 2 бесплантно в хорошем качестве Описание:Страдающего амнезией молодого парня, пытающегося выяснить - кто он есть на самом деле, похищает подпольная преступная организация ... 9.1 10 7
    Info! Золотая раздача, скачанное не засчитывается.
    Торрент: Зарегистрирован [2014-08-31 12:44] · скачан: 101 раз
    Статус: T временная
    Размер: 8.59 GB
    Как cкачать? Как скачать Теккен 2 через торрент | UTorrent

    % Раздел Тема Автор DL S | L
    Фильмы 2014 [DVDrip, WEB-DLRip, HDrip] [ 1.36 GB ] Теккен 2 / Tekken: A Man Called X | | HDRip, Профессиональный [многоголосый Ворон Скачать
    1 | 0
    T Фильмы без перевода [ 1.02 GB ] Теккен 2 / Tekken: A Man Called X / Tekken: Kazuyas Revenge | | DVDRip killermax2013 Скачать
    1 | 0

    28-11-2019 20:33  


    Отключить вcю реклaмy на сайте, в т.ч. и в плеере онлайн просмотра!

    31-08-2014 14:18 Теккен 2 Скачать торрент  

    бред а не фильм,смысл называть фильм теккен 2,если вообще ничего общего с первой частью. Да это типа пред история,но блин сравнить Хейхачи с первой части и с этой,абсолютно разные люди,отстой и скукатище.



      Дорогой пользователь! Огромная просьба, поблагодарите релизера, оцените раздачу и оставьте свои комментарий, если Вы скачали Теккен 2 через торрент бесплатно!!
      Комментировать посты могут только пользователи прошедшие не сложную регистрацию
      Показать сообщения:    


      Теккен 2 через торрент
      Скачать бесплатно Теккен 2
      Теккен 2 скачать торрент
      Теккен 2 смотреть онлайн
      Cкачать фильм Теккен 2 бесплатно
      Теккен 2 скачать торрент в хорошем качестве
      Теккен 2 смотреть онлайн бесплатно в хорошем качестве
      Вы не можете начинать темы
      Вы не можете отвечать на сообщения
      Вы не можете редактировать свои сообщения
      Вы не можете удалять свои сообщения
      Вы не можете голосовать в опросах
      Вы не можете прикреплять файлы к сообщениям
      Вы можете скачивать файлы
      Теккен 2 / Tekken: A Man Called X [2014, боевик, BDRip 1080p, Любительский смотреть онлайн, скачать торрент picoco.icu