Доктор Стрэндж

Лицензия

Добыча

Дубляж

Уэнсдэй

1 сезон

Тор

Дубляж

В эфире

Дубляж

Там, где раки поют

MVO

Властелин колец

1 сезон

Deluxe

pack

Рекомендуем

30

Пиратка

ВАЖНО

ВАЖНО

Ghostwire

Пиратка

jed

RePack

nioh2

RePack

RDR2

RePack

NEED FOR SPEED™ PAYBACK

RePack

скачать торрент

Кинопоиск HD

Острые козырьки 6 сезон

6 сезон

FAR CRY 6

RePack

скачать торрент

Лицензия

скачать торрент

MVO

1

1 сезон

скачать торрент

1 сезон

скачать торрент

Лицензия

  

Мамула / Mamula (Милан Тодорович) [2014, ужасы, фэнтези, BDRip 720p, Любительский (двухголосый)[den904, DeadSno]

Мамула через торрент piratbit.org

Размер: 4.02 GB | Добавлен: 8 лет 3 мес. назад | Торрент скачан:80 раз
Смотреть онлайн | Скачать   

31-08-2014 18:01 Мамула Скачать торрент  

Мамула / Mamula
«It's a dangerous place. Just go somewhere else»

Год выпуска: 2014
Страна: Сербия
Жанр:ужасы, фэнтези
Продолжительность:01:34:13
Перевод:Любительский (двухголосый)[den904, DeadSno]
Субтитры: немецкие (Forced),
Режиссер:Милан Тодорович

  • В ролях:

    Кристина Клебе (Kelly), Франко Неро (Niko), Наталия Гуслистая (Lucy), Драган Мичанович (Boban), Миодраг Крстович (Guardian), Слободан Стефанович (Alex), Sofija Rajovic (Yasmin), Зорана Костик Обрадович (Scylla (the Nymph)), Елена Ракочевич (Ana), Janko Cekic (Sergej), Мики Перич (Mickey Backpacker), Милена Предич (Bar Owner)

  • Описание:
    Две американки приезжают к своему однокурснику из колледжа на отдых в Черногорию. Впереди ждет весёлый отдых и беззаботная неделя, как говорится - солнце, море, пляж. Но однажды, проплывая мимо загадочного острова-крепости Мамула, они решают заглянуть туда. Но у Мамулы свои страшные секреты. Остров не совсем необитаем. И встреча с его обитателями несёт неминуемую смерть, ведь их голоса поют для тебя страшную и прекрасную песню ужаса и зовут прямо в ад...

  • Мировая премьера:8 марта 2014


    Качество: BDRip 720p
    Формат:MKV
    Видео кодек: AVC
    Аудио кодек:AC3, DTS
    Видео: AVC, 1280x720 (16:9), 4290 kbps, 24 fps, 0,194 bpp
    Аудио №1: AC3 / 2.0 / 48 kHz / 192 kbps / 16 bit-RUS
    Аудио №2: немецкий / DTS / 5.1 / 48 kHz / 1510 kbps / 16 bit

    Код:

    General
    Unique ID                                : 204275766317044876833897068419046878145 (0x99AE14DEE7C051BF99559A4F5466ABC1)
    Complete name                            : D:\Торенты\Mamyl4.2014.L2.BDRip.720.mkv
    Format                                   : Matroska
    Format version                           : Version 4 / Version 2
    File size                                : 4.02 GiB
    Duration                                 : 1h 34mn
    Overall bit rate                         : 6 114 Kbps
    Encoded date                             : UTC 2014-08-27 04:58:45
    Writing application                      : mkvmerge v7.0.0 ('Where We Going') 64bit built on Jun  9 2014 15:16:27
    Writing library                          : libebml v1.3.0 + libmatroska v1.4.1
    _STATISTICS_WRITING_APP                  : mkvmerge v7.0.0 ('Where We Going') 64bit built on Jun  9 2014 15:16:27
    _STATISTICS_WRITING_DATE_UTC             : 2014-08-27 04:58:45
    _STATISTICS_TAGS                         : BPS DURATION NUMBER_OF_FRAMES NUMBER_OF_BYTES
    DURATION                                 : 01:34:13.856000000
    NUMBER_OF_FRAMES                         : 176683
    NUMBER_OF_BYTES                          : 135692544

    Video
    ID                                       : 1
    Format                                   : AVC
    Format/Info                              : Advanced Video Codec
    Format profile                           : High@L4.1
    Format settings, CABAC                   : Yes
    Format settings, ReFrames                : 5 frames
    Codec ID                                 : V_MPEG4/ISO/AVC
    Duration                                 : 1h 34mn
    Bit rate                                 : 4 291 Kbps
    Width                                    : 1 280 pixels
    Height                                   : 720 pixels
    Display aspect ratio                     : 16:9
    Frame rate                               : 24.000 fps
    Color space                              : YUV
    Chroma subsampling                       : 4:2:0
    Bit depth                                : 8 bits
    Scan type                                : Progressive
    Bits/(Pixel*Frame)                       : 0.194
    Stream size                              : 2.82 GiB (70%)
    Writing library                          : x264 core 142 r2453 ea0ca51
    Encoding settings                        : cabac=1 / ref=5 / deblock=1:-1:-1 / analyse=0x3:0x133 / me=umh / subme=7 / psy=1 / psy_rd=1.00:0.15 / mixed_ref=1 / me_range=16 / chroma_me=1 / trellis=1 / 8x8dct=1 / cqm=0 / deadzone=21,11 / fast_pskip=0 / chroma_qp_offset=-3 / threads=12 / lookahead_threads=2 / sliced_threads=0 / nr=0 / decimate=1 / interlaced=0 / bluray_compat=0 / constrained_intra=0 / bframes=3 / b_pyramid=2 / b_adapt=1 / b_bias=0 / direct=3 / weightb=1 / open_gop=0 / weightp=2 / keyint=240 / keyint_min=24 / scenecut=40 / intra_refresh=0 / rc_lookahead=40 / rc=crf / mbtree=1 / crf=20.0 / qcomp=0.60 / qpmin=10 / qpmax=69 / qpstep=4 / ip_ratio=1.40 / aq=1:1.00
    Language                                 : English
    Default                                  : Yes
    Forced                                   : No
    _STATISTICS_WRITING_APP                  : mkvmerge v7.0.0 ('Where We Going') 64bit built on Jun  9 2014 15:16:27
    _STATISTICS_WRITING_DATE_UTC             : 2014-08-27 04:58:45
    _STATISTICS_TAGS                         : BPS DURATION NUMBER_OF_FRAMES NUMBER_OF_BYTES
    DURATION                                 : 01:34:13.917000000
    NUMBER_OF_FRAMES                         : 135694
    NUMBER_OF_BYTES                          : 3117205198

    Audio #1
    ID                                       : 2
    Format                                   : AC-3
    Format/Info                              : Audio Coding 3
    Mode extension                           : CM (complete main)
    Codec ID                                 : A_AC3
    Duration                                 : 1h 34mn
    Bit rate mode                            : Constant
    Bit rate                                 : 192 Kbps
    Channel(s)                               : 2 channels
    Channel positions                        : Front: L R
    Sampling rate                            : 48.0 KHz
    Bit depth                                : 16 bits
    Compression mode                         : Lossy
    Stream size                              : 129 MiB (3%)
    Default                                  : Yes
    Forced                                   : Yes

    Audio #2
    ID                                       : 3
    Format                                   : DTS
    Format/Info                              : Digital Theater Systems
    Codec ID                                 : A_DTS
    Duration                                 : 1h 34mn
    Bit rate mode                            : Constant
    Bit rate                                 : 1 510 Kbps
    Channel(s)                               : 6 channels
    Channel positions                        : Front: L C R, Side: L R, LFE
    Sampling rate                            : 48.0 KHz
    Bit depth                                : 16 bits
    Compression mode                         : Lossy
    Stream size                              : 1 018 MiB (25%)
    Language                                 : German
    Default                                  : No
    Forced                                   : No

    Text
    ID                                       : 4
    Format                                   : UTF-8
    Codec ID                                 : S_TEXT/UTF8
    Codec ID/Info                            : UTF-8 Plain Text
    Title                                    : Forced
    Language                                 : German
    Default                                  : Yes
    Forced                                   : Yes

    Menu
    00:00:00.000                             : en:00:00:00.000
    00:06:46.500                             : en:00:06:46.500
    00:13:23.041                             : en:00:13:23.041
    00:21:20.041                             : en:00:21:20.041
    00:28:54.375                             : en:00:28:54.375
    00:37:50.583                             : en:00:37:50.583
    00:48:29.666                             : en:00:48:29.666
    00:55:12.541                             : en:00:55:12.541
    01:02:28.416                             : en:01:02:28.416
    01:10:20.416                             : en:01:10:20.416
    01:19:28.041                             : en:01:19:28.041
    01:29:03.000                             : en:01:29:03.000

    Скриншоты:

    Срочно! Нужна помощь!

    © Оформление by Raven



  • Скачать Мамула через торрент https://pic1.kartinco.top/images/61/stazu.jpg Скачать, смотреть онлайн Мамула бесплантно в хорошем качестве Описание:Две американки приезжают к своему однокурснику из колледжа на отдых в Черногорию. Впереди ждет весёлый отдых и беззаботная неделя, ... 9.5 10 6
    Торрент: Зарегистрирован [2014-08-31 18:01] · скачан: 80 раз
    Статус: T временная
    Размер: 4.02 GB
    Как cкачать? Как скачать Мамула через торрент | UTorrent

    % Раздел Тема Автор DL S | L
    T Фильмы 2014 (Звук TS, Cam, VO, DVO) [ 1.2 GB ] Мамула / Русалка / Mamula / Nymph | Мамула / Русалка / Mamula / Nymph | HDRip, Любительский (одноголосый GEKADOL Скачать
    1 | 0

    28-11-2019 20:33  


    Отключить вcю реклaмy на сайте, в т.ч. и в плеере онлайн просмотра!

    31-08-2014 18:23 Мамула Скачать торрент  

    Ё !!! Описание уже интригует...



    31-08-2014 19:16 Мамула Скачать торрент  

    хорошо в тех местах фильм снимать.



    31-08-2014 19:52 Мамула Скачать торрент  

    В этом ужастике ток рейтинг пугает...



    01-09-2014 00:44 Мамула Скачать торрент  

    saidfatal писал(а):

    В этом ужастике ток рейтинг пугает...

    для филма "ужасов" это даже слишком большой рэйтинг sarcastic



      Дорогой пользователь! Огромная просьба, поблагодарите релизера, оцените раздачу и оставьте свои комментарий, если Вы скачали Мамула через торрент бесплатно!!
      Комментировать посты могут только пользователи прошедшие не сложную регистрацию
      Показать сообщения:    


      Мамула через торрент
      Скачать бесплатно Мамула
      Мамула скачать торрент
      Мамула смотреть онлайн
      Cкачать фильм Мамула бесплатно
      Мамула скачать торрент в хорошем качестве
      Мамула смотреть онлайн бесплатно в хорошем качестве
      Вы не можете начинать темы
      Вы не можете отвечать на сообщения
      Вы не можете редактировать свои сообщения
      Вы не можете удалять свои сообщения
      Вы не можете голосовать в опросах
      Вы не можете прикреплять файлы к сообщениям
      Вы можете скачивать файлы
      Мамула / Mamula [2014, ужасы, фэнтези, BDRip 720p, Любительский [den904, DeadSno] смотреть онлайн, скачать торрент picoco.icu