1 сезон

1 сезон

iTunes

1

iTunes

Кинопоиск HD

iTunes

13

1 сезон

RePack

30

Deluxe

ВАЖНО

ИГРА 18+

pack

RePack

MK11
pack

Легкие деньги

RePack

jed

RePack

fifa19

RePack

RDR2

RePack

NEED FOR SPEED™ PAYBACK

4 сезон

9 сезон

Бесстыжие 9 сезон

Все сериалы

все сериалы на PB.wtf

RePack

FAR CRY 5
  
Magnet ссылка

Соблазн / Original Sin (Майкл Кристофер) [2001, драма, мелодрама, детектив, BDRip] MVO piratbit.org

Соблазн через торрент piratbit.org

Размер: 2.18 GB | Добавлен: 6 лет 8 мес. назад | Торрент скачан:193 раза
Скачать  

02-09-2014 11:14 Соблазн Скачать торрент  

Соблазн / Original Sin
«Злые шутки любви»


Год выпуска: 2001
Страна: Франция , США
Жанр: драма, мелодрама, детектив
Продолжительность: 01:58:25
Перевод: Профессиональный (многоголосый закадровый)

Режиссер: Майкл Кристофер
Сценарий: Майкл Кристофер, Корнелл Вулрич
Продюсер: Денис Ди Нови, Кейт Гинзбург, Кэрол Лииз
Оператор: Родриго Прието
Композитор : Теренс Блэнчард
Художник: Дэвид Дж. Бомба, Джон Р. Дженсен, Донна Заковска
Монтаж: Эрик А. Сирс

В ролях: Антонио Бандерас / Antonio Banderas (Luis Antonio Vargas), Анджелина Джоли / Angelina Jolie (Julia Russell / Bonny Castle), Томас Джейн / Thomas Jane (Billy / Walter Downs / Mephisto), Джек Томпсон / Jack Thompson (Alan Jordan), Грегори Итцин / Gregory Itzin (Colonel Worth), Эллисон Маки / Allison Mackie (Augusta Jordan), Джоан Прингл / Joan Pringle (Sara), Корделия Ричардс / Cordelia Richards (Emily Russell)


Описание: Когда увлечение оборачивается страстью, когда женщина становится наваждением, когда разум срывается в бездну, любовь превращается в смертельный поединок. Богатый кубинский торговец Луис Антонио Варгас собирается жениться на американке.Приближается время встречи с долгожданной невестой, и взволнованный жених уже представляет себе невинную скромную девушку, которой предстоит разделить с ним жизнь.Но ожидания Луиса не оправдались — в его судьбу вторглась роковая женщина. Сила очарования и магия соблазна способны сделать счастливым любого… и погубить каждого.

СЭМПЛ

Бюджет: $42 000 000
Сборы в США: $16 534 221
Сборы в мире: $35 402 320
Зрители: США 3.07 млн , Испания 504.6 тыс. , Бразилия 491.3 тыс.
Премьера (мир): 11 июля 2001
Премьера (РФ): 6 сентября 2001, «Каскад»
Релиз на DVD: 18 марта 2010, «CP-Digital»
Рейтинг MPAA: Лицам до 17 лет обязательно присутствие взрослого


Качество: BDRip
Формат: AVI
Видео кодек: XviD
Аудио кодек: AC3
Видео: 720x304 (2.35:1), 23.976 fps, XviD, 1 788 Kbps
Аудио: Аудио #1: AC3, 448 Kbps, 48.0 KHz, 6 ch Профессиональный (многоголосый, закадровый)
Аудио #2: AC3, 384 Kbps, 48.0 KHz, 6 ch Оригинал (Английский)
· Фильм снят по мотивам романа Корнелла Вулрича «Соблазн» (Waltz Into Darkness, 1947).

· В разгар работы над фильмом Джоли отлучилась в Голливуд за «Оскаром» за роль в картине «Прерванная жизнь».

· Рабочее название ленты («Танцующие в темноте») было изменено из-за выхода на экраны «Танцующей в темноте» Ларса фон Триера.

· Положенный в основу фильма роман Корнелла Вулрича уже был экранизирован Франсуа Трюффо в 1969 году («Сирена «Миссисипи»»).

Код:

General
Complete name                    : Soblazn.Unrated.2001.DUAL.BDRip.XviD.AC3.avi
Format                           : AVI
Format/Info                      : Audio Video Interleave
Format profile                   : OpenDML
File size                        : 2.18 GiB
Duration                         : 1h 58mn
Overall bit rate                 : 2 638 Kbps

Video
ID                               : 0
Format                           : MPEG-4 Visual
Format profile                   : Advanced Simple@L5
Format settings, BVOP            : Yes
Format settings, QPel            : No
Format settings, GMC             : No warppoints
Format settings, Matrix          : Custom
Codec ID                         : XVID
Codec ID/Hint                    : XviD
Duration                         : 1h 58mn
Bit rate                         : 1 788 Kbps
Width                            : 720 pixels
Height                           : 304 pixels
Display aspect ratio             : 2.35:1
Frame rate                       : 23.976 fps
Color space                      : YUV
Chroma subsampling               : 4:2:0
Bit depth                        : 8 bits
Scan type                        : Progressive
Bits/(Pixel*Frame)               : 0.341
Stream size                      : 1.48 GiB (68%)
Writing library                  : XviD 1.2.1 (UTC 2008-12-04)

Audio #1
ID                               : 1
Format                           : AC-3
Format/Info                      : Audio Coding 3
Mode extension                   : CM (complete main)
Codec ID                         : 2000
Duration                         : 1h 58mn
Bit rate mode                    : Constant
Bit rate                         : 448 Kbps
Channel(s)                       : 6 channels
Channel positions                : Front: L C R, Side: L R, LFE
Sampling rate                    : 48.0 KHz
Bit depth                        : 16 bits
Stream size                      : 379 MiB (17%)
Alignment                        : Split accross interleaves
Interleave, duration             : 42 ms (1.00 video frame)
Interleave, preload duration     : 500 ms

Audio #2
ID                               : 2
Format                           : AC-3
Format/Info                      : Audio Coding 3
Mode extension                   : CM (complete main)
Codec ID                         : 2000
Duration                         : 1h 58mn
Bit rate mode                    : Constant
Bit rate                         : 384 Kbps
Channel(s)                       : 6 channels
Channel positions                : Front: L C R, Side: L R, LFE
Sampling rate                    : 48.0 KHz
Bit depth                        : 16 bits
Stream size                      : 325 MiB (15%)
Alignment                        : Split accross interleaves
Interleave, duration             : 42 ms (1.00 video frame)
Interleave, preload duration     : 500 ms

piratbit.org



Скачать Соблазн через торрент http://i63.fastpic.ru/big/2014/0902/c2/9910f9ff55864b722b7a5e35f0a5f7c2.jpg Скачать фильм Соблазн через торрент бесплантно в хорошем качестве Описание: Когда увлечение оборачивается страстью, когда женщина становится наваждением, когда разум срывается в бездну, любовь превращается ... 10 10 3
Info! Золотая раздача, скачанное не засчитывается.
Торрент: Зарегистрирован [2014-09-02 11:14] · скачан: 193 раз
Статус: √ проверено
Размер: 2.18 GB
Как cкачать? Как скачать Соблазн через торрент | UTorrent

% Раздел Тема Автор DL S | L
R.G. Resident & PiratVoice - Фильмы, Видео [ 4.26 GB ] Соблазн / Original Sin [2001 BDRip 720p MVO] R.G.Resident schultz Скачать
1 | 0

28-11-2019 20:33  

Отключить всю рекламу на сайте

02-09-2014 11:16 Соблазн Скачать торрент  

Классный фильм,смотрел в кинотеатре Советую к просмотру.piratbit.org



02-09-2014 11:24 Соблазн Скачать торрент  

gunk писал(а):

Классный фильм,смотрел в кинотеатре Советую к просмотру.

согласен зачетный фильм piratbit.org



11-08-2015 09:54 Соблазн Скачать торрент  

Друзья, дайте скорости пожалуйста!!! Совсем нет ни кого на раздаче...piratbit.org



    Дорогой пользователь! Огромная просьба, поблагодарите релизера, оцените раздачу и оставьте свои комментарий, если Вы скачали Соблазн через торрент бесплатно! Внесите свою лепту в развитие PiratBit!
    Комментировать посты могут только пользователи прошедшие не сложную регистрацию
    Показать сообщения:    

    Соблазн через торрент
    Скачать бесплатно Соблазн
    Соблазн скачать торрент
    Соблазн смотреть онлайн
    Cкачать фильм Соблазн бесплатно
    Соблазн скачать торрент в хорошем качестве
    Соблазн смотреть онлайн бесплатно в хорошем качестве


    Вы не можете начинать темы
    Вы не можете отвечать на сообщения
    Вы не можете редактировать свои сообщения
    Вы не можете удалять свои сообщения
    Вы не можете голосовать в опросах
    Вы не можете прикреплять файлы к сообщениям
    Вы можете скачивать файлы