1 сезон

1 сезон

iTunes

1

iTunes

Кинопоиск HD

iTunes

13

1 сезон

RePack

30

Deluxe

ВАЖНО

ИГРА 18+

pack

RePack

MK11
pack

Легкие деньги

RePack

jed

RePack

fifa19

RePack

RDR2

RePack

NEED FOR SPEED™ PAYBACK

4 сезон

9 сезон

Бесстыжие 9 сезон

Все сериалы

все сериалы на PB.wtf

RePack

FAR CRY 5
  
Magnet ссылка

Грязные прелести / Dirty Pretty Things (Стивен Фрирз) [2002, триллер, драма, криминал, HDRip] DUB piratbit.org

Грязные прелести через торрент piratbit.org

Размер: 1.45 GB | Добавлен: 6 лет 8 мес. назад | Торрент скачан:160 раз
Скачать  

02-09-2014 14:30 Грязные прелести Скачать торрент  

Грязные прелести / Dirty Pretty Things
«Некоторые тайны слишком опасно хранить в секрете»


Год выпуска: 2002
Страна: Великобритания
Жанр: триллер, драма, криминал
Продолжительность: 01:37:02
Перевод: Профессиональный (дублированный)

Режиссер: Стивен Фрирз
Сценарий: Стивен Найт
Продюсер: Роберт Джонс, Трэйси Сиуорд, Джули Голдштейн
Оператор: Крис Менгис
Композитор : Нэйтан Ларсон
Художник: Хуго Луцык-Выховский, Ребекка Холмс, Одиль Дикс-Мирье
Монтаж: Мик Одсли

В ролях: Одри Тоту / Audrey Tautou (Senay Gelik), Чиветель Эджиофор / Chiwetel Ejiofor (Okwe), Серхи Лопес / Sergi López (Sneaky / Juan), Софи Оконедо / Sophie Okonedo (Juliette), Бенедикт Вонг / Benedict Wong (Guo Yi), Кенан Худаверди / Kenan Hudaverdi (Cafe Owner), Дэймон Янгер / Damon Younger (Punter), Пол Бхаттачарджи / Paul Bhattacharjee (Mohammed)


Описание: Подпольный мир Лондона. Здесь все продается и покупается. Молодой человек и девушка работают в одном отеле, очаге преступной деятельности.Они практически незнакомы до того момента, пока один из них не делает леденящее душу открытие. Герои не могут сообщить об этом ни коррумпированному боссу, ни полиции. Они будут счастливы, если им удастся остаться в живых.

СЭМПЛ

Бюджет: $10 000 000
Сборы в США: $8 112 414
Сборы в мире: $13 904 766
Сборы в России: $267 769
Зрители: США 1.34 млн , Франция 208.3 тыс. , Великобритания 177.7 тыс.
Премьера (мир): 5 сентября 2002
Премьера (РФ): 31 июля 2003, «West»
Релиз на DVD: 23 марта 2004, «West Video»
Рейтинг MPAA: Лицам до 17 лет обязательно присутствие взрослого


Качество: HDRip
Формат: AVI
Видео кодек: XviD
Аудио кодек: AC3
Видео: 704x384 (16:9), 24.000 fps, XviD, 1 745 Kbps
Аудио: Аудио #1: AC3, 384 Kbps, 48.0 KHz, 6 ch

Код:

General
Complete name                    : Gryaznye_prelesti_HDRip.avi
Format                           : AVI
Format/Info                      : Audio Video Interleave
File size                        : 1.45 GiB
Duration                         : 1h 37mn
Overall bit rate                 : 2 139 Kbps
Writing application              : VirtualDubMod 1.5.10.2 (build 2540/release)
Writing library                  : VirtualDubMod build 2540/release

Video
ID                               : 0
Format                           : MPEG-4 Visual
Format profile                   : Advanced Simple@L5
Format settings, BVOP            : Yes
Format settings, QPel            : No
Format settings, GMC             : No warppoints
Format settings, Matrix          : Custom
Codec ID                         : XVID
Codec ID/Hint                    : XviD
Duration                         : 1h 37mn
Bit rate                         : 1 745 Kbps
Width                            : 704 pixels
Height                           : 384 pixels
Display aspect ratio             : 16:9
Frame rate                       : 24.000 fps
Color space                      : YUV
Chroma subsampling               : 4:2:0
Bit depth                        : 8 bits
Scan type                        : Progressive
Bits/(Pixel*Frame)               : 0.269
Stream size                      : 1.18 GiB (82%)
Writing library                  : XviD 1.2.1 (UTC 2008-12-04)

Audio
ID                               : 1
Format                           : AC-3
Format/Info                      : Audio Coding 3
Mode extension                   : CM (complete main)
Codec ID                         : 2000
Duration                         : 1h 37mn
Bit rate mode                    : Constant
Bit rate                         : 384 Kbps
Channel(s)                       : 6 channels
Channel positions                : Front: L C R, Side: L R, LFE
Sampling rate                    : 48.0 KHz
Bit depth                        : 16 bits
Stream size                      : 267 MiB (18%)
Alignment                        : Split accross interleaves
Interleave, duration             : 42 ms (1.00 video frame)
Interleave, preload duration     : 500 ms

piratbit.org



Скачать Грязные прелести через торрент http://i64.fastpic.ru/big/2014/0902/e8/d48ab22243d4f72c62d96e72d03fe0e8.jpg Скачать фильм Грязные прелести через торрент бесплантно в хорошем качестве Описание: Подпольный мир Лондона. Здесь все продается и покупается. Молодой человек и девушка работают в одном отеле, очаге преступной ... 10 10 5
Info! Золотая раздача, скачанное не засчитывается.
Торрент: Зарегистрирован [2014-09-02 14:30] · скачан: 160 раз
Статус: √ проверено
Размер: 1.45 GB
Как cкачать? Как скачать Грязные прелести через торрент | UTorrent

% Раздел Тема Автор DL S | L
Фильмы [HD 720p, 1080p] (Хороший звук DUB, MVO) [ 6.51 GB ] Грязные прелести / Dirty Pretty Things [2002 BDRip 720p] DUB MVO DVO AVO _denis_100 Скачать
1 | 0
Фильмы 2001-2005 [ 2.05 GB ] Грязные прелести / Dirty Pretty Things [2002 HDRip DUB+MVO] кэп Скачать
1 | 0

28-11-2019 20:33  

Отключить всю рекламу на сайте

    Дорогой пользователь! Огромная просьба, поблагодарите релизера, оцените раздачу и оставьте свои комментарий, если Вы скачали Грязные прелести через торрент бесплатно! Внесите свою лепту в развитие PiratBit!
    Комментировать посты могут только пользователи прошедшие не сложную регистрацию
    Показать сообщения:    

    Грязные прелести через торрент
    Скачать бесплатно Грязные прелести
    Грязные прелести скачать торрент
    Грязные прелести смотреть онлайн
    Cкачать фильм Грязные прелести бесплатно
    Грязные прелести скачать торрент в хорошем качестве
    Грязные прелести смотреть онлайн бесплатно в хорошем качестве


    Вы не можете начинать темы
    Вы не можете отвечать на сообщения
    Вы не можете редактировать свои сообщения
    Вы не можете удалять свои сообщения
    Вы не можете голосовать в опросах
    Вы не можете прикреплять файлы к сообщениям
    Вы можете скачивать файлы