1 сезон

1 сезон

iTunes

1

КиноПоиск HD

Кинопоиск HD

iTunes

13

1 сезон

RePack

30

Deluxe

ВАЖНО

ИГРА 18+

pack

RePack

MK11
pack

Легкие деньги

RePack

jed

RePack

fifa19

RePack

RDR2

RePack

NEED FOR SPEED™ PAYBACK

4 сезон

9 сезон

Бесстыжие 9 сезон

Все сериалы

все сериалы на PB.wtf

RePack

FAR CRY 5
  
Magnet ссылка

Мошенники / Serving Sara (Реджинальд Хадлин / Reginald Hudlin) [2002, Германия, США, мелодрама, комедия, DVDRip, Дубляж+(профессиональный многоголосый, авторский (В. Королёв))] piratbit.org

Мошенники через торрент piratbit.org

Размер: 2.19 GB | Добавлен: 6 лет 7 мес. назад | Торрент скачан:135 раз
Скачать  

10-09-2014 04:32 Мошенники Скачать торрент  

Мошенники / Serving Sara «The One Thing That Could Bring Them Together Is Revenge»
Год выпуска: 2002
Страна: Германия, США
Жанр: мелодрама, комедия
Продолжительность: 01:39:58
Перевод: Дубляж+(профессиональный многоголосый, авторский (В. Королёв))
Субтитры: Отсутствует
Режиссер: Реджинальд Хадлин / Reginald Hudlin
В ролях:


Мэттью Перри (Joe Tyler), Элизабет Херли (Sara Moore), Винсент Пасторе (Tony), Брюс Кэмпбелл (Gordon Moore), Седрик «Развлекатель» (Ray Harris), Эми Адамс (Kate), Терри Крюс (Vernon), Джерри Стиллер (Milton the Cop), Маршалл Белл (Warren Cebron), Дерек Саузерс (Bouncer), Алан Эклс (Man in elevator (scenes deleted)), Робин МакГи (Jimmy, Elevator Operator)

Описание:
Развод по-американски - это «развод» на деньги. Стоит только вытереть слезы и с помощью ушлого парня из адвокатской конторы «развести» бывшего муженька и его новую пассию на миллион долларов. Все, что для этого нужно, - небольшая афера.
Гордон и Сара Мур не совсем обычная супружеская пара. Сара - типичная англичанка, Гордон - типичный техасец. Благодаря совместным усилиям их скотоводческое ранчо приносит огромные доходы. Прощаясь с мужем в аэропорту и садясь в самолет, направляющийся в Нью-Йорк, Сара и подумать не могла, какой сюрприз приготовил ей благоверный. В его жизни появилась другая женщина, и он хочет развестись.

Бюджет:$29 000 000

MPAA: PG-13 - Детям до 13 лет просмотр не желателен
Качество: DVDRip
Формат: AVI
Видео кодек:XviD
Аудио кодек:AC3
Видео: XviD, 704x400 (16:9), 1770 kbps, 23,976 fps, 0,262 bpp
Аудио №1: AC3 / 5.1 / 48 kHz / 448 kbps / 16 bit
Аудио №2: AC3 / 5.1 / 48 kHz / 448 kbps / 16 bit
Аудио №3: AC3 / 5.1 / 48 kHz / 448 kbps / 16 bit



General
Complete name : D:\Users\_KaisiK_\Bitcomet\КИНО\Moshenniki.2002.Triple.DVDRip.avi
Format : AVI
Format/Info : Audio Video Interleave
Format profile : OpenDML
File size : 2.19 GiB
Duration : 1h 39mn
Overall bit rate : 3 132 Kbps
Movie name : Мошенники / Serving Sara (2002) DVDRip
Genre : Мелодрама, комедия, приключения
Recorded date : 05.09.2014
Writing application : VirtualDubMod 1.5.10.3 | www.virtualdub-fr.org || (build 2550/release)
Writing library : VirtualDubMod build 2550/release
Copyright : rip by ivandubskoj

Video
ID : 0
Format : MPEG-4 Visual
Format profile : Advanced Simple@L5
Format settings, BVOP : 1
Format settings, QPel : No
Format settings, GMC : No warppoints
Format settings, Matrix : Custom
Codec ID : XVID
Codec ID/Hint : XviD
Duration : 1h 39mn
Bit rate : 1 771 Kbps
Width : 704 pixels
Height : 400 pixels
Display aspect ratio : 16:9
Frame rate : 23.976 fps
Color space : YUV
Chroma subsampling : 4:2:0
Bit depth : 8 bits
Scan type : Progressive
Compression mode : Lossy
Bits/(Pixel*Frame) : 0.262
Stream size : 1.24 GiB (57%)
Writing library : XviD 73

Audio #1
ID : 1
Format : AC-3
Format/Info : Audio Coding 3
Mode extension : CM (complete main)
Codec ID : 2000
Duration : 1h 39mn
Bit rate mode : Constant
Bit rate : 448 Kbps
Channel(s) : 6 channels
Channel positions : Front: L C R, Side: L R, LFE
Sampling rate : 48.0 KHz
Bit depth : 16 bits
Compression mode : Lossy
Stream size : 320 MiB (14%)
Alignment : Split accross interleaves
Interleave, duration : 64 ms (1.53 video frames)
Interleave, preload duration : 500 ms
Title : Russian [DUB, R5, Невафильм]

Audio #2
ID : 2
Format : AC-3
Format/Info : Audio Coding 3
Mode extension : CM (complete main)
Codec ID : 2000
Duration : 1h 39mn
Bit rate mode : Constant
Bit rate : 448 Kbps
Channel(s) : 6 channels
Channel positions : Front: L C R, Side: L R, LFE
Sampling rate : 48.0 KHz
Bit depth : 16 bits
Compression mode : Lossy
Stream size : 320 MiB (14%)
Alignment : Split accross interleaves
Interleave, duration : 64 ms (1.53 video frames)
Interleave, preload duration : 500 ms
Title : Russian [MVO]

Audio #3
ID : 3
Format : AC-3
Format/Info : Audio Coding 3
Mode extension : CM (complete main)
Codec ID : 2000
Duration : 1h 39mn
Bit rate mode : Constant
Bit rate : 448 Kbps
Channel(s) : 6 channels
Channel positions : Front: L C R, Side: L R, LFE
Sampling rate : 48.0 KHz
Bit depth : 16 bits
Compression mode : Lossy
Stream size : 320 MiB (14%)
Alignment : Split accross interleaves
Interleave, duration : 64 ms (1.53 video frames)
Interleave, preload duration : 500 ms
Title : Russian [AVO, В. Королёв]



piratbit.org



Скачать Мошенники через торрент http://i5.imageban.ru/out/2014/09/10/2baae18b0066e59a6d17bd59cd0ecae2.jpg Скачать фильм Мошенники через торрент бесплантно в хорошем качестве Описание: Развод по-американски - это «развод» на деньги. Стоит только вытереть слезы и с помощью ушлого парня из адвокатской конторы ... 7.5 10 4
Info! Золотая раздача, скачанное не засчитывается.
Торрент: Зарегистрирован [2014-09-10 04:32] · скачан: 135 раз
Статус: √ проверено
Размер: 2.19 GB
Как cкачать? Как скачать Мошенники через торрент | UTorrent

% Раздел Тема Автор DL S | L
Фильмы (WEB-DL 720p, 1080p) [ 8.55 GB ] Мошенники / Serving Sara [2002 WEB-DL 1080p] Dub + DVO + AVO - KORSAR kisa1980 Скачать
1 | 0
Фильмы (WEB-DL 720p, 1080p) [ 5.25 GB ] Мошенники / Serving Sara [2002 WEB-DLRip 720p] Dub + DVO + AVO - KORSAR kisa1980 Скачать
1 | 0
Фильмы 2001-2005 [ 1.53 GB ] Мошенники / Serving Sara [2002 DVDRip] + [MVO] + [AVO] killermax2013 Скачать
1 | 0
Фильмы 2001-2005 [ 1.37 GB ] Мошенники / Serving Sara [2002 Мело DVDRip] Trust Скачать
1 | 0
Фильмы 2001-2005 [ 1.37 GB ] Мошенники / Serving Sara [2002 DVDRip] chaga2009 Скачать
1 | 0

28-11-2019 20:33  

Отключить всю рекламу на сайте

    Дорогой пользователь! Огромная просьба, поблагодарите релизера, оцените раздачу и оставьте свои комментарий, если Вы скачали Мошенники через торрент бесплатно! Внесите свою лепту в развитие PiratBit!
    Комментировать посты могут только пользователи прошедшие не сложную регистрацию
    Показать сообщения:    

    Мошенники через торрент
    Скачать бесплатно Мошенники
    Мошенники скачать торрент
    Мошенники смотреть онлайн
    Cкачать фильм Мошенники бесплатно
    Мошенники скачать торрент в хорошем качестве
    Мошенники смотреть онлайн бесплатно в хорошем качестве


    Вы не можете начинать темы
    Вы не можете отвечать на сообщения
    Вы не можете редактировать свои сообщения
    Вы не можете удалять свои сообщения
    Вы не можете голосовать в опросах
    Вы не можете прикреплять файлы к сообщениям
    Вы можете скачивать файлы