Доктор Стрэндж

Лицензия

Добыча

Дубляж

Уэнсдэй

1 сезон

Тор

Дубляж

В эфире

Дубляж

Там, где раки поют

MVO

Властелин колец

1 сезон

Deluxe

pack

Рекомендуем

30

Пиратка

ВАЖНО

ВАЖНО

Ghostwire

Пиратка

jed

RePack

nioh2

RePack

RDR2

RePack

NEED FOR SPEED™ PAYBACK

RePack

скачать торрент

Кинопоиск HD

Острые козырьки 6 сезон

6 сезон

FAR CRY 6

RePack

скачать торрент

Лицензия

скачать торрент

MVO

1

1 сезон

скачать торрент

1 сезон

скачать торрент

Лицензия

  

Ветчина, ветчина / Jamon, jamon (Бигас Луна) [1992 г., драма, мелодрама, комедия, BDRip 720p] VO

Ветчина, ветчина через торрент piratbit.org

Раздают: 1 [ 0 KB/s ]
Размер: 3.96 GB | Добавлен: 8 лет 2 мес. назад | Торрент скачан:105 раз
Смотреть онлайн | Скачать   

14-09-2014 15:37 Ветчина, ветчина Скачать торрент  

Ветчина, ветчина / Jamon, jamon
Год выпуска: 1992
Страна: Испания
Жанр: Драма, мелодрама, комедия
Продолжительность: 01:34:59
Перевод: Любительский одноголосый
Субтитры: Нет

Режиссер: Бигас Луна

В ролях: Стефания Сандрелли, Анна Гальена, Хуан Диего, Пенелопа Крус, Хавьер Бардем, Хорди Молья, Томаш Мартин, Армандо Дел Рио, Диана Сассен, Чема Мазо

Описание: Мать молодого человека Жозе не хочет его свадьбы с Сильвией — дочерью местной проститутки. Правда мама ещё не знает, что Сильвия беременна от её сына. А когда узнаёт об этом, то нанимает молодого красавца Рауля, который работает на колбасном складе и мечтает быть тореадором. По её замыслу Сильвия должна влюбиться в него, а соперник, её сын, будет лишним. Но события принимают совершенно непредсказуемый оборот и приводят к удивительным последствиям для всех...



Лог х264 | Сравнение с исходником

Качество: BDRip 720p [Исходник -- Timur (HDtracker)]
Формат: MKV
Видео кодек: H.264
Аудио кодек: AC3
Видео: MPEG-4 AVC, 1280x692, 5465 Кбит/с, 24,000 кадра/сек
Аудио 1: русский, AC3, 448 kbps avg, 6 ch, 48 kHz, [Любительский одноголосый]
Аудио 2: Испанский, AC3, 192 kbps avg, 2 ch, 48 kHz
Общее
Уникальный идентификатор : 203192843998295297175564396005704393353 (0x98DD84AD9D65B26ABE959161B4A4E289)
Полное имя : D:VideoVetchina, vetchina.1992.BDRip.720p.mkv
Формат : Matroska
Версия формата : Version 4 / Version 2
Размер файла : 3,96 Гбайт
Продолжительность : 1 ч. 34 м.
Общий поток : 5968 Кбит/сек
Дата кодирования : UTC 2014-07-14 02:28:38
Программа кодирования : mkvmerge v6.9.1 ('Blue Panther') 64bit built on Apr 18 2014 18:23:38
Библиотека кодирования : libebml v1.3.0 + libmatroska v1.4.1

Видео
Идентификатор : 1
Формат : AVC
Формат/Информация : Advanced Video Codec
Профиль формата : High@L4.1
Параметр CABAC формата : Да
Параметр ReFrames формата : 9 кадров
Идентификатор кодека : V_MPEG4/ISO/AVC
Продолжительность : 1 ч. 34 м.
Битрейт : 5465 Кбит/сек
Ширина : 1280 пикселей
Высота : 692 пикселя
Соотношение сторон : 1,85:1
Режим частоты кадров : Постоянный
Частота кадров : 24,000 кадра/сек
Цветовое пространство : YUV
Субдискретизация насыщенности : 4:2:0
Битовая глубина : 8 бит
Тип развёртки : Прогрессивная
Бит/(Пиксели*Кадры) : 0.257
Размер потока : 3,63 Гбайт (92%)
Заголовок : BDRip -- STarankov
Библиотека кодирования : x264 core 142 r2431 ac76440
Настройки программы : cabac=1 / ref=9 / deblock=1:-1:-1 / analyse=0x3:0x113 / me=umh / subme=10 / psy=1 / psy_rd=1.00:0.15 / mixed_ref=1 / me_range=32 / chroma_me=1 / trellis=2 / 8x8dct=1 / cqm=0 / deadzone=21,11 / fast_pskip=0 / chroma_qp_offset=-3 / threads=6 / lookahead_threads=1 / sliced_threads=0 / nr=0 / decimate=1 / interlaced=0 / bluray_compat=0 / constrained_intra=0 / bframes=8 / b_pyramid=2 / b_adapt=2 / b_bias=0 / direct=1 / weightb=1 / open_gop=0 / weightp=2 / keyint=230 / keyint_min=23 / scenecut=40 / intra_refresh=0 / rc_lookahead=40 / rc=crf / mbtree=0 / crf=19.5 / qcomp=0.60 / qpmin=0 / qpmax=69 / qpstep=4 / vbv_maxrate=40000 / vbv_bufsize=50000 / crf_max=0.0 / nal_hrd=none / filler=0 / ip_ratio=1.40 / pb_ratio=1.30 / aq=1:1.00
Язык : Spanish
Default : Да
Forced : Нет

Аудио #1
Идентификатор : 2
Формат : AC-3
Формат/Информация : Audio Coding 3
Расширение режима : CM (complete main)
Параметр Endianness формата : Big
Идентификатор кодека : A_AC3
Продолжительность : 1 ч. 34 м.
Вид битрейта : Постоянный
Битрейт : 192 Кбит/сек
Каналы : 2 канала
Расположение каналов : Front: L R
Частота : 48,0 КГц
Битовая глубина : 16 бит
Метод сжатия : С потерями
Размер потока : 130 Мбайт (3%)
Заголовок : VO (одноголосый)
Язык : Russian
Default : Да
Forced : Нет

Аудио #2
Идентификатор : 3
Формат : AC-3
Формат/Информация : Audio Coding 3
Расширение режима : CM (complete main)
Параметр Endianness формата : Big
Идентификатор кодека : A_AC3
Продолжительность : 1 ч. 34 м.
Вид битрейта : Постоянный
Битрейт : 192 Кбит/сек
Каналы : 2 канала
Расположение каналов : Front: L R
Частота : 48,0 КГц
Битовая глубина : 16 бит
Метод сжатия : С потерями
Размер потока : 130 Мбайт (3%)
Заголовок : Original
Язык : Spanish
Default : Нет
Forced : Нет



Скачать Ветчина, ветчина через торрент http://i65.fastpic.ru/big/2014/0914/c6/097483d9faeccd9d897bf2f9934841c6.jpg Скачать, смотреть онлайн Ветчина, ветчина бесплантно в хорошем качестве Описание: Мать молодого человека Жозе не хочет его свадьбы с Сильвией — дочерью местной проститутки. Правда мама ещё не знает, что Сильвия ... 10 10 2
Info! Золотая раздача, скачанное не засчитывается.
Торрент: Зарегистрирован [2014-09-14 15:37] · скачан: 105 раз
Статус: √ проверено
Размер: 3.96 GB
Как cкачать? Как скачать Ветчина, ветчина через торрент | UTorrent

% Раздел Тема Автор DL S | L
Фильмы [HD 720p, 1080p] (Звук Cam, VO, DVO) [ 9.7 GB ] Ветчина, ветчина / Jamon, jamon | | 1080p msltel Скачать
1 | 0



Последний раз редактировалось: msltel (2014-09-15 08:46), всего редактировалось 7 раз(а)

28-11-2019 20:33  


Отключить вcю реклaмy на сайте, в т.ч. и в плеере онлайн просмотра!

15-09-2014 06:54 Ветчина, ветчина Скачать торрент  

Ветчина, ветчина / Jamon, jamon post_749895 тоже самое что и здесь.



15-09-2014 07:21 Ветчина, ветчина Скачать торрент  

Raven, исправлено. Инфу и скрины сейчас исправлю.



    Дорогой пользователь! Огромная просьба, поблагодарите релизера, оцените раздачу и оставьте свои комментарий, если Вы скачали Ветчина, ветчина через торрент бесплатно!!
    Комментировать посты могут только пользователи прошедшие не сложную регистрацию
    Показать сообщения:    


    Ветчина, ветчина через торрент
    Скачать бесплатно Ветчина, ветчина
    Ветчина, ветчина скачать торрент
    Ветчина, ветчина смотреть онлайн
    Cкачать фильм Ветчина, ветчина бесплатно
    Ветчина, ветчина скачать торрент в хорошем качестве
    Ветчина, ветчина смотреть онлайн бесплатно в хорошем качестве
    Вы не можете начинать темы
    Вы не можете отвечать на сообщения
    Вы не можете редактировать свои сообщения
    Вы не можете удалять свои сообщения
    Вы не можете голосовать в опросах
    Вы не можете прикреплять файлы к сообщениям
    Вы можете скачивать файлы
    Ветчина, ветчина / Jamon, jamon [1992 г., драма, мелодрама, комедия, BDRip 720p] VO смотреть онлайн, скачать торрент picoco.icu