Доктор Стрэндж

Лицензия

Добыча

Дубляж

Дом дракона

1 сезон

Тор

Дубляж

В эфире

Дубляж

Там, где раки поют

MVO

Властелин колец

1 сезон

Ultimate

pack

Рекомендуем

30

Пиратка

ВАЖНО

ВАЖНО

Ghostwire

Пиратка

jed

RePack

nioh2

RePack

RDR2

RePack

NEED FOR SPEED™ PAYBACK

RePack

скачать торрент

Кинопоиск HD

Острые козырьки 6 сезон

6 сезон

FAR CRY 6

RePack

скачать торрент

Лицензия

скачать торрент

MVO

1

1 сезон

скачать торрент

1 сезон

скачать торрент

Лицензия

  

Ветчина, ветчина / Jamon, jamon (Бигас Луна) [1992 г., драма, мелодрама, комедия, BDRip 1080p] VO

Ветчина, ветчина через торрент piratbit.org

Размер: 9.7 GB | Добавлен: 8 лет 2 мес. назад | Торрент скачан:28 раз
Смотреть онлайн | Скачать   

14-09-2014 16:05 Ветчина, ветчина Скачать торрент  

Ветчина, ветчина / Jamon, jamon
Год выпуска: 1992
Страна: Испания
Жанр: Драма, мелодрама, комедия
Продолжительность: 01:34:59
Перевод: Любительский одноголосый
Субтитры: Нет

Режиссер: Бигас Луна

В ролях: Стефания Сандрелли, Анна Гальена, Хуан Диего, Пенелопа Крус, Хавьер Бардем, Хорди Молья, Томаш Мартин, Армандо Дел Рио, Диана Сассен, Чема Мазо

Описание: Мать молодого человека Жозе не хочет его свадьбы с Сильвией — дочерью местной проститутки. Правда мама ещё не знает, что Сильвия беременна от её сына. А когда узнаёт об этом, то нанимает молодого красавца Рауля, который работает на колбасном складе и мечтает быть тореадором. По её замыслу Сильвия должна влюбиться в него, а соперник, её сын, будет лишним. Но события принимают совершенно непредсказуемый оборот и приводят к удивительным последствиям для всех...



Лог х264 | Сравнение с исходником

Качество: BDRip 1080p [Исходник -- Timur (HDtracker)]
Формат: MKV
Видео кодек: H.264
Аудио кодек: AC3
Видео: MPEG-4 AVC, 1920x1038, 13.9 Mбит/с, 24 кадра/сек
Аудио 1: русский, AC3, 448 kbps avg, 6 ch, 48 kHz [Любительский одноголосый]
Аудио 2: Испанский, AC3, 192 Кбит/с, 2 ch, 48 kHz
Общее
Уникальный идентификатор : 231927080227246730837395745131162483633 (0xAE7B87E740D924D086D703ED28BBBBB1)
Полное имя : D:\Video\Vetchina, vetchina.1992.BDRip.1080p.mkv
Формат : Matroska
Версия формата : Version 4 / Version 2
Размер файла : 9,70 Гбайт
Продолжительность : 1 ч. 34 м.
Общий поток : 14,6 Мбит/сек
Дата кодирования : UTC 2014-07-16 04:35:13
Программа кодирования : mkvmerge v6.9.1 ('Blue Panther') 64bit built on Apr 18 2014 18:23:38
Библиотека кодирования : libebml v1.3.0 + libmatroska v1.4.1

Видео
Идентификатор : 1
Формат : AVC
Формат/Информация : Advanced Video Codec
Профиль формата : High@L4.1
Параметр CABAC формата : Да
Параметр ReFrames формата : 4 кадра
Идентификатор кодека : V_MPEG4/ISO/AVC
Продолжительность : 1 ч. 34 м.
Битрейт : 13,9 Мбит/сек
Ширина : 1920 пикселей
Высота : 1038 пикселей
Соотношение сторон : 1,85:1
Режим частоты кадров : Постоянный
Частота кадров : 24,000 кадра/сек
Цветовое пространство : YUV
Субдискретизация насыщенности : 4:2:0
Битовая глубина : 8 бит
Тип развёртки : Прогрессивная
Бит/(Пиксели*Кадры) : 0.292
Размер потока : 9,25 Гбайт (95%)
Заголовок : BDRip -- STarankov
Библиотека кодирования : x264 core 142 r2431 ac76440
Настройки программы : cabac=1 / ref=4 / deblock=1:-1:-1 / analyse=0x3:0x113 / me=umh / subme=10 / psy=1 / psy_rd=1.00:0.15 / mixed_ref=1 / me_range=32 / chroma_me=1 / trellis=2 / 8x8dct=1 / cqm=0 / deadzone=21,11 / fast_pskip=0 / chroma_qp_offset=-3 / threads=6 / lookahead_threads=1 / sliced_threads=0 / nr=0 / decimate=1 / interlaced=0 / bluray_compat=0 / constrained_intra=0 / bframes=8 / b_pyramid=2 / b_adapt=2 / b_bias=0 / direct=1 / weightb=1 / open_gop=0 / weightp=2 / keyint=230 / keyint_min=23 / scenecut=40 / intra_refresh=0 / rc_lookahead=40 / rc=crf / mbtree=0 / crf=19.5 / qcomp=0.60 / qpmin=0 / qpmax=69 / qpstep=4 / vbv_maxrate=40000 / vbv_bufsize=50000 / crf_max=0.0 / nal_hrd=none / filler=0 / ip_ratio=1.40 / pb_ratio=1.30 / aq=1:1.00
Язык : Spanish
Default : Да
Forced : Нет

Аудио #1
Идентификатор : 2
Формат : AC-3
Формат/Информация : Audio Coding 3
Расширение режима : CM (complete main)
Параметр Endianness формата : Big
Идентификатор кодека : A_AC3
Продолжительность : 1 ч. 34 м.
Вид битрейта : Постоянный
Битрейт : 192 Кбит/сек
Каналы : 2 канала
Расположение каналов : Front: L R
Частота : 48,0 КГц
Битовая глубина : 16 бит
Метод сжатия : С потерями
Размер потока : 130 Мбайт (1%)
Заголовок : VO (одноголосый)
Язык : Russian
Default : Да
Forced : Нет

Аудио #2
Идентификатор : 3
Формат : AC-3
Формат/Информация : Audio Coding 3
Расширение режима : CM (complete main)
Параметр Endianness формата : Big
Идентификатор кодека : A_AC3
Продолжительность : 1 ч. 34 м.
Вид битрейта : Постоянный
Битрейт : 192 Кбит/сек
Каналы : 2 канала
Расположение каналов : Front: L R
Частота : 48,0 КГц
Битовая глубина : 16 бит
Метод сжатия : С потерями
Размер потока : 130 Мбайт (1%)
Заголовок : Original
Язык : Spanish
Default : Нет
Forced : Нет




Скачать Ветчина, ветчина через торрент http://i65.fastpic.ru/big/2014/0914/c6/097483d9faeccd9d897bf2f9934841c6.jpg Скачать, смотреть онлайн Ветчина, ветчина бесплантно в хорошем качестве Описание: Мать молодого человека Жозе не хочет его свадьбы с Сильвией — дочерью местной проститутки. Правда мама ещё не знает, что Сильвия ... 10 10 5
Info! Золотая раздача, скачанное не засчитывается.
Торрент: Зарегистрирован [2014-09-14 16:05] · скачан: 28 раз
Статус: √ проверено
Размер: 9.7 GB
Как cкачать? Как скачать Ветчина, ветчина через торрент | UTorrent

% Раздел Тема Автор DL S | L
Фильмы [HD 720p, 1080p] (Звук Cam, VO, DVO) [ 3.96 GB ] Ветчина, ветчина / Jamon, jamon | | 720p msltel Скачать
1 | 0



Последний раз редактировалось: msltel (2014-09-15 08:46), всего редактировалось 6 раз(а)

28-11-2019 20:33  


Отключить вcю реклaмy на сайте, в т.ч. и в плеере онлайн просмотра!

14-09-2014 19:01 Ветчина, ветчина Скачать торрент  

тот самый "хамон", который теперь не смогут кушать редакторы глянцевых журналов? толсто :)



15-09-2014 06:52 Ветчина, ветчина Скачать торрент  

Дополнительные требования для всех релизов кинопроката , Видео и ТВ
Отчет в релизе должен быть в текстовом формате, а весь текст под спойлером
Правила раздела Фильмы. Как правильно оформить раздачу фильма
14.7 Скриншоты должны быть представлены в форматах .jpg (.jpeg) или .png. Скриншоты должны быть представлены в виде превью (вы видите маленькую картинку с надписью "Увеличить", а при нажатии в новом окне открывается скриншот в натуральную величину).

msltel писал(а):

[qpost=undefined]Аудио 2: Испанский (AC3, 2 ch, 192 Кбит/с)

Битрейт аудио (kbps), количество каналов (ch), частота дискретизации (KHz)




15-09-2014 07:15 Ветчина, ветчина Скачать торрент  

Raven, и опять спасибо. Исправлено.



    Дорогой пользователь! Огромная просьба, поблагодарите релизера, оцените раздачу и оставьте свои комментарий, если Вы скачали Ветчина, ветчина через торрент бесплатно!!
    Комментировать посты могут только пользователи прошедшие не сложную регистрацию
    Показать сообщения:    


    Ветчина, ветчина через торрент
    Скачать бесплатно Ветчина, ветчина
    Ветчина, ветчина скачать торрент
    Ветчина, ветчина смотреть онлайн
    Cкачать фильм Ветчина, ветчина бесплатно
    Ветчина, ветчина скачать торрент в хорошем качестве
    Ветчина, ветчина смотреть онлайн бесплатно в хорошем качестве
    Вы не можете начинать темы
    Вы не можете отвечать на сообщения
    Вы не можете редактировать свои сообщения
    Вы не можете удалять свои сообщения
    Вы не можете голосовать в опросах
    Вы не можете прикреплять файлы к сообщениям
    Вы можете скачивать файлы
    Ветчина, ветчина / Jamon, jamon [1992 г., драма, мелодрама, комедия, BDRip 1080p] VO смотреть онлайн, скачать торрент picoco.icu